BitTorrentTracker PerecTracker.org
BitTorrentTracker PerecTracker.org
    
Регистрация  ·  Вход
 
 · 
Забыли пароль?

  • Черный ящик / La Boîte noire (Ришар Берри / Richard Berry) [2005, Франция, триллер, детектив, мистика, HDTVRip] MVO

    Ответить на тему
     
    Автор Сообщение

    Columb

    Создавать темы 20-Дек-2014 20:54

           

    [Цитировать]

    Черный ящик / La Boîte noire
    Страна: Франция
    Жанр: триллер, детектив, мистика
    Год выпуска: 2005
    Продолжительность: 01:23:58
    Перевод: Профессиональный (многоголосый закадровый)
    Cубтитры: нет
    Режиссер: Ришар Берри / Richard Berry
    В ролях: Хосе Гарсиа, Марион Котийяр, Мишель Дюшоссуа, Бернар Ле Кок, Мариса Борини
    Описание: После ужасной автомобильной аварии, которая должны была стоить ему жизни, Артур Зелигман несколько часов пребывает в коме, во время которой бредит вслух. А сиделка старательно записывает его бред в отдельный блокнот, который впоследствии вручает самому пострадавшему. И тогда на него обрушивается лавина вопросов, самый простой из которых - а что он делал ночью на той дороге близ Шербура? С этого момента для Артура начинается самое невероятное приключение его едва не оборвавшейся жизни.
    Доп. информация: За запись фильма (по моей просьбе) спасибо Romanok8691
    Сэмпл: https://yadi.sk/i/tJYw7DvLdVsFR
    Качество видео: HDTVRip [Исходник 1080i]
    Формат видео: AVI
    Видео: 720x400 (1.80:1), 25 fps, XviD build 50 ~2128 kbps avg, 0.29 bit/pixel
    Аудио: 48 kHz, AC3 Dolby Digital, 2/0 (L,R) ch, ~192 kbps

    MediaInfo

    Чёрный ящик - La Boîte noire [by Edich2].avi
    Format : AVI
    Format/Info : Audio Video Interleave
    File size : 1.37 GiB
    Duration : 1h 23mn
    Overall bit rate : 2 330 Kbps
    Movie name : Чёрный ящик - La Boite noire [by Edich2]
    Director : by Edich2
    Writing application : VirtualDubMod 1.5.10.3 | www.virtualdub-fr.org || (build 2550/release)
    Comment : RuTracker.org
    Video
    ID : 0
    Format : MPEG-4 Visual
    Format profile : Advanced Simple@L5
    Format settings, BVOP : 1
    Format settings, QPel : No
    Format settings, GMC : No warppoints
    Format settings, Matrix : Default (MPEG)
    Codec ID : XVID
    Codec ID/Hint : XviD
    Duration : 1h 23mn
    Bit rate : 2 129 Kbps
    Width : 720 pixels
    Height : 400 pixels
    Display aspect ratio : 16:9
    Frame rate : 25.000 fps
    Color space : YUV
    Chroma subsampling : 4:2:0
    Bit depth : 8 bits
    Scan type : Progressive
    Compression mode : Lossy
    Bits/(Pixel*Frame) : 0.296
    Stream size : 1.25 GiB (91%)
    Writing library : XviD 1.2.1 (UTC 2008-12-04)
    Audio
    ID : 1
    Format : AC-3
    Format/Info : Audio Coding 3
    Mode extension : CM (complete main)
    Format settings, Endianness : Big
    Codec ID : 2000
    Duration : 1h 23mn
    Bit rate mode : Constant
    Bit rate : 192 Kbps
    Channel(s) : 2 channels
    Channel positions : Front: L R
    Sampling rate : 48.0 KHz
    Bit depth : 16 bits
    Compression mode : Lossy
    Stream size : 115 MiB (8%)
    Alignment : Split accross interleaves
    Interleave, duration : 40 ms (1.00 video frame)
    Interleave, preload duration : 500 ms

    Скриншоты


    Скачать .torrent

    Скачать торрент-файл бесплатно и на максимальной скорости!

    Как скачивать? · Что такое торрент? · Рейтинг и ограничения

    !ВНИМАНИЕ!
    Сайт не распространяет и не хранит электронные версии произведений, а занимается лишь лишь предоставлением доступа к создаваемому пользователями каталогу ссылок на торрент-файлы, которые содержат только списки хеш-сумм, убедительная просьба с жалобами обращаться напрямую к пользователю. Файлы для обмена на трекере предоставлены пользователями сайта, и администрация не несёт ответственности за их содержание. Просьба не заливать файлы, защищенные авторскими правами, а также файлы нелегального содержания!

    [Профиль] [ЛС]
    Показать сообщения:    
    Ответить на тему

    Текущее время: Сегодня, в 16:02

    Часовой пояс: GMT + 2



    Вы не можете начинать темы
    Вы не можете отвечать на сообщения
    Вы не можете редактировать свои сообщения
    Вы не можете удалять свои сообщения
    Вы не можете голосовать в опросах
    Вы не можете прикреплять файлы к сообщениям
    Вы не можете скачивать файлы