BitTorrentTracker PerecTracker.org
BitTorrentTracker PerecTracker.org
    
Регистрация  ·  Вход
 
 · 
Забыли пароль?

  • Коктейль / Cocktail (Хоми Ададжания / Homi Adajania) [2012, Индия, Великобритания, драма, мелодрама, комедия, DVDRip] MVO

    Ответить на тему
     
    Автор Сообщение

    Columb

    Создавать темы 20-Дек-2014 12:27

           

    [Цитировать]

    Коктейль / Cocktail
    Страна: Индия, Великобритания
    Жанр: драма, мелодрама, комедия
    Год выпуска: 2012
    Продолжительность: 01:32:17
    Перевод: Любительский (многоголосый, закадровый)
    Оригинальная аудиодорожка: хинди
    Cубтитры: русские на песни и полные (*srt)
    Режиссер: Хоми Ададжания / Homi Adajania
    В ролях: Саиф Али Кхан, Дипика Падукон, Диана Пенти, Рандип Худа, Боман Ирани, Димпл Кападия
    Описание:Три главных героя: 32-х летний Гаутам, 24-х летняя Вероника и 23-х летняя Мира вынуждены жить под одной крышей в квартире Вероники в Лондоне.
    Мира приехала к мужу в Лондон, но оказалось, что она ему не нужна. Мира остаётся в чужом городе одна, без денег.
    Добродушная Вероника предложила ей пожить у неё какое-то время, пока она не найдёт здесь работу. Фотограф Вероника живёт в Лондоне одна, без родителей.
    Любит ходить по дискотекам, радоваться жизни. И Гаутам, ветреный малый, который любит поволочиться за каждой юбкой, приехал в Лондон в гости к своему дяде.
    На дискотеке с Вероникой он знакомится и заваливается к ней на ночь…

    Сэмпл
    Качество: DVDRip
    Контейнер: AVI
    Видео: 720x304 (2.37:1), 23.976 fps, XviD build 50 ~1038 kbps avg, 0.20 bit/pixel
    Аудио 1:48 kHz, AC3 Dolby Digital, 2/0 (L,R) ch, ~256 kbps |Rus
    Аудио 1:48 kHz, AC3 Dolby Digital, 3/2 (L,C,R,l,r) + LFE ch, ~448 kbps |Hindi

    MI

    General
    Complete name : C:\Users\Вячеслав\Downloads\Cocktail\Cocktail.avi
    Format : AVI
    Format/Info : Audio Video Interleave
    File size : 1.78 GiB
    Duration : 2h 24mn
    Overall bit rate : 1 757 Kbps
    Writing application : VirtualDubModRus 1.5.10.2 (build 2542/release)
    Writing library : VirtualDubMod build 2542/release
    Video
    ID : 0
    Format : MPEG-4 Visual
    Format profile : Advanced Simple@L5
    Format settings, BVOP : 2
    Format settings, QPel : No
    Format settings, GMC : No warppoints
    Format settings, Matrix : Custom
    Codec ID : XVID
    Codec ID/Hint : XviD
    Duration : 2h 24mn
    Bit rate : 1 039 Kbps
    Width : 720 pixels
    Height : 304 pixels
    Display aspect ratio : 2.35:1
    Frame rate : 23.976 fps
    Color space : YUV
    Chroma subsampling : 4:2:0
    Bit depth : 8 bits
    Scan type : Progressive
    Compression mode : Lossy
    Bits/(Pixel*Frame) : 0.198
    Stream size : 1.05 GiB (59%)
    Writing library : XviD 1.2.1 (UTC 2008-12-04)
    Audio #1
    ID : 1
    Format : AC-3
    Format/Info : Audio Coding 3
    Mode extension : CM (complete main)
    Format settings, Endianness : Big
    Codec ID : 2000
    Duration : 2h 24mn
    Bit rate mode : Constant
    Bit rate : 256 Kbps
    Channel(s) : 2 channels
    Channel positions : Front: L R
    Sampling rate : 48.0 KHz
    Bit depth : 16 bits
    Compression mode : Lossy
    Stream size : 265 MiB (15%)
    Alignment : Split accross interleaves
    Interleave, duration : 42 ms (1.00 video frame)
    Interleave, preload duration : 500 ms
    Audio #2
    ID : 2
    Format : AC-3
    Format/Info : Audio Coding 3
    Mode extension : CM (complete main)
    Format settings, Endianness : Big
    Codec ID : 2000
    Duration : 2h 24mn
    Bit rate mode : Constant
    Bit rate : 448 Kbps
    Channel(s) : 6 channels
    Channel positions : Front: L C R, Side: L R, LFE
    Sampling rate : 48.0 KHz
    Bit depth : 16 bits
    Compression mode : Lossy
    Stream size : 464 MiB (25%)
    Alignment : Split accross interleaves
    Interleave, duration : 42 ms (1.00 video frame)
    Interleave, preload duration : 500 ms

    Скриншоты

    Скачать .torrent

    Скачать торрент-файл бесплатно и на максимальной скорости!

    Как скачивать? · Что такое торрент? · Рейтинг и ограничения

    !ВНИМАНИЕ!
    Сайт не распространяет и не хранит электронные версии произведений, а занимается лишь лишь предоставлением доступа к создаваемому пользователями каталогу ссылок на торрент-файлы, которые содержат только списки хеш-сумм, убедительная просьба с жалобами обращаться напрямую к пользователю. Файлы для обмена на трекере предоставлены пользователями сайта, и администрация не несёт ответственности за их содержание. Просьба не заливать файлы, защищенные авторскими правами, а также файлы нелегального содержания!

    [Профиль] [ЛС]
    Показать сообщения:    
    Ответить на тему

    Текущее время: Сегодня, в 20:49

    Часовой пояс: GMT + 2



    Вы не можете начинать темы
    Вы не можете отвечать на сообщения
    Вы не можете редактировать свои сообщения
    Вы не можете удалять свои сообщения
    Вы не можете голосовать в опросах
    Вы не можете прикреплять файлы к сообщениям
    Вы не можете скачивать файлы