BitTorrentTracker PerecTracker.org
BitTorrentTracker PerecTracker.org
    
Регистрация  ·  Вход
 
 · 
Забыли пароль?

  • Пришелец из будущего / Returner / Ritana (Такаши Ямазаки / Takashi Yamazaki) [2002, Япония, фантастика, боевик, приключения, HDRip] DVO

    Ответить на тему
     
    Автор Сообщение

    Columb

    Создавать темы 20-Дек-2014 12:26

           

    [Цитировать]

    Пришелец из будущего / Returner / Ritana
    Страна: Япония
    Жанр: фантастика, боевик, приключения
    Год выпуска: 2002
    Продолжительность: 01:52:46-Перевод: Профессиональный (двухголосый закадровый)-Cубтитры: нет
    Оригинальная аудиодорожка: нет
    Режиссер: Такаши Ямазаки / Takashi Yamazaki
    В ролях: Такеши Канеширо, Энн Сузуки, Кирин Кики, Горо Кишитани, Юкико Окамото, Митсуру Мурата, Кисуке Иида, Казуя Шимицу, Чихару Кавай, Дин Хэррингтон...
    Описание: В недалеком будущем всему человечеству грозит неминуемая гибель из-за конфликта, произошедшего каких-то сто лет назад, между землянами и инопланетянами. На тот момент человечество уже изобрело машину времени и посылает в прошлое девочку Милле в надежде на то, что она сможет повернуть ход истории и нам удастся избежать кровопролития. В нашем настоящем она встречает Масашито — наемного убийцу. Вместе они должны остановить грядущий апокалипсис.
    Релиз от -
    Сэмпл: http://multi-up.com/1021582
    Качество видео: HDRip
    Формат видео: AVI
    Видео: MPEG-4 Visual at 1410 Кбит/сек; 704 x 304 (2.316) at 23.976 fps
    Аудио: AC-3 at 448 Кбит/сек; 6 каналов, 48,0 КГц
    Автор -

    MediaInfo

    Общее
    Полное имя : D:\Фильмы\Азиатские\Пришелец из будущего\Returner.2002.HDRip.XviD.1400MB. rip by [Assassin's Creed].avi
    Формат : AVI
    Формат/Информация : Audio Video Interleave
    Размер файла : 1,47 Гбайт
    Продолжительность : 1 ч. 52 м.
    Общий поток : 1866 Кбит/сек
    Программа кодирования : VirtualDubMod 1.5.10.3 | www.virtualdub-fr.org || (build 2550/release)
    Библиотека кодирования : VirtualDubMod build 2550/release
    Видео
    Идентификатор : 0
    Формат : MPEG-4 Visual
    Профиль формата : Advanced Simple@L5
    Параметр BVOP формата : 1
    Параметр QPel формата : Нет
    Параметр GMC формата : Без точки перехода
    Параметр матрицы формата : Default (MPEG)
    Идентификатор кодека : XVID
    Идентификатор кодека/Подсказка : XviD
    Продолжительность : 1 ч. 52 м.
    Битрейт : 1410 Кбит/сек
    Ширина : 704 пикселя
    Высота : 304 пикселя
    Соотношение сторон : 2,35:1
    Частота кадров : 23,976 кадра/сек
    Цветовое пространство : YUV
    Субдискретизация насыщенности : 4:2:0
    Битовая глубина : 8 бит
    Тип развёртки : Прогрессивная
    Метод сжатия : С потерями
    Бит/(Пиксели*Кадры) : 0.275
    Размер потока : 1,11 Гбайт (76%)
    Библиотека кодирования : XviD 1.2.1 (UTC 2008-12-04)
    Аудио
    Идентификатор : 1
    Формат : AC-3
    Формат/Информация : Audio Coding 3
    Расширение режима : CM (complete main)
    Параметр Endianness формата : Big
    Идентификатор кодека : 2000
    Продолжительность : 1 ч. 52 м.
    Вид битрейта : Постоянный
    Битрейт : 448 Кбит/сек
    Каналы : 6 каналов
    Расположение каналов : Front: L C R, Side: L R, LFE
    Частота : 48,0 КГц
    Битовая глубина : 16 бит
    Метод сжатия : С потерями
    Размер потока : 360 Мбайт (24%)
    Выравнивание : Разделение по промежуткам
    Продолжительность промежутка : 42 мс. (1,00 видеокадр)
    Время предзагрузки промежутка : 500 мс.

    Скриншот c названием фильма

    Скриншоты

    Скачать .torrent

    Скачать торрент-файл бесплатно и на максимальной скорости!

    Как скачивать? · Что такое торрент? · Рейтинг и ограничения

    !ВНИМАНИЕ!
    Сайт не распространяет и не хранит электронные версии произведений, а занимается лишь лишь предоставлением доступа к создаваемому пользователями каталогу ссылок на торрент-файлы, которые содержат только списки хеш-сумм, убедительная просьба с жалобами обращаться напрямую к пользователю. Файлы для обмена на трекере предоставлены пользователями сайта, и администрация не несёт ответственности за их содержание. Просьба не заливать файлы, защищенные авторскими правами, а также файлы нелегального содержания!

    [Профиль] [ЛС]
    Показать сообщения:    
    Ответить на тему

    Текущее время: Сегодня, в 19:51

    Часовой пояс: GMT + 2



    Вы не можете начинать темы
    Вы не можете отвечать на сообщения
    Вы не можете редактировать свои сообщения
    Вы не можете удалять свои сообщения
    Вы не можете голосовать в опросах
    Вы не можете прикреплять файлы к сообщениям
    Вы не можете скачивать файлы