BitTorrentTracker PerecTracker.org
BitTorrentTracker PerecTracker.org
    
Регистрация  ·  Вход
 
 · 
Забыли пароль?

  • Братство волка / Brotherhood of the Wolf / Le Pacte des Loups (Кристоф Ган / Christophe Gans) [2001, Франция, триллер, ужасы, боевик, детектив, DVDRip] [режиссерская версия] MVO (Киномания) + Dub (английский) + AVO (Сергей Кузнецов) + Original Fre

    Ответить на тему
     
    Автор Сообщение

    Columb

    Создавать темы 20-Дек-2014 12:25

           

    [Цитировать]

    Братство волка / Brotherhood of the Wolf / Le Pacte des Loups
    (режиссерская версия)
    -Страна: Франция
    Жанр: триллер, ужасы, боевик, детектив
    Год выпуска: 2001
    Продолжительность: 02:30:43-Перевод 1: Профессиональный (многоголосый закадровый) "Киномания"
    Перевод 2: Авторский (одноголосый закадровый) Сергей Кузнецов
    Cубтитры: нет
    Оригинальные аудиодорожки: французский (отдельно), английский
    Автор рипа: anton210896-Режиссер: Кристоф Ган / Christophe Gans-В ролях: Марк Дакаскос, Венсан Кассель, Моника Беллуччи, Самюэль Ле Бьян, Эмили Декьенн, Жереми Ренье, Жан Янн, Жан-Франсуа Стевенен, Жак Перрен, Йохан Лейзен-Описание: Франция, вторая половина XVIII века. В местечке под названием Жевадан появляется страшное существо, прозванное жителями Зверем, оно безжалостно убивает женщин и детей. Зверь кажется неуловимым, уходя от многочисленных облав, его не берут пули, он исчезает так же внезапно как появляется, и только немногие выжившие способны описать его внешность.
    Сам король Людовик XV решает разобраться в происходящем и поручает расследовать жестокие убийства учёному Грегору де Фронсаку. С Грегором в Жеводане появляется ещё один герой — индеец Мани — он когда-то спас де Фронсаку жизнь, и теперь они братья по крови.
    Вокруг молчаливого индейца таинственности не меньше, чем вокруг Зверя. Мани прибегает к загадочным ритуалам, а в борьбе с монстром полагается на инстинкты и обычаи своего народа.-Исходник: DVD9(спасибо: scorpionyura)
    Сэмпл: https://yadi.sk/i/o_Fw3dbKdVhbF-Качество видео: DVDRip
    Формат видео: AVI
    Видео: 688x288 (2.39:1), 29.970 fps, XviD MPEG-4 ~1002 kbps avg, 0.17 bit/pixel
    Аудио 1: 48 kHz, MPEG Layer 3, 2 ch, ~192.00 kbps avg / Профессиональный многоголосый (Киномания)
    Аудио 2: 48 kHz, MPEG Layer 3, 2 ch, ~192.00 kbps avg / Оригинал (английский)
    Аудио 3: 48 kHz, AC3 5.1, 2 ch, ~192.00 kbps avg / Авторский одноголосый (Сергей Кузнецов)
    Аудио 4: 48 kHz, AC3 5.1, 2 ch, ~192.00 kbps avg / Оригинал (французский)
    -

    MediaInfo

    General
    Complete name : C:\Users\Администратор\Desktop\Bratstvo.volka.Director's.Cut.2001.Dt.DVDRip.XviD.AC3.MVO.ENG.1400MB\Bratstvo.volka.Director's.Cut.2001.Dt.DVDRip.XviD.AC3.MVO.ENG.1400MB.avi
    Format : AVI
    Format/Info : Audio Video Interleave
    File size : 1.48 GiB
    Duration : 2h 30mn
    Overall bit rate : 1 405 Kbps
    Movie name : Братство волка (реж. версия) (2001) / DVDRip by anton210896
    Director : anton210896
    Genre : Триллер, ужасы, детектив
    Recorded date : 14.12.14
    Writing application : VirtualDubModRus 1.5.10.2 (build 2542/release)
    Writing library : VirtualDubMod build 2542/release
    Copyright : © by anton210896
    Video
    ID : 0
    Format : MPEG-4 Visual
    Format profile : Advanced Simple@L5
    Format settings, BVOP : 2
    Format settings, QPel : No
    Format settings, GMC : No warppoints
    Format settings, Matrix : Default (H.263)
    Codec ID : XVID
    Codec ID/Hint : XviD
    Duration : 2h 30mn
    Bit rate : 1 003 Kbps
    Width : 688 pixels
    Height : 288 pixels
    Display aspect ratio : 2.35:1
    Original display aspect rat : 2.40:1
    Frame rate : 29.970 fps
    Color space : YUV
    Chroma subsampling : 4:2:0
    Bit depth : 8 bits
    Scan type : Progressive
    Compression mode : Lossy
    Bits/(Pixel*Frame) : 0.169
    Stream size : 1.06 GiB (71%)
    Writing library : XviD 64
    Audio #1
    ID : 1
    Format : MPEG Audio
    Format version : Version 1
    Format profile : Layer 3
    Mode : Joint stereo
    Codec ID : 55
    Codec ID/Hint : MP3
    Duration : 2h 30mn
    Bit rate mode : Constant
    Bit rate : 192 Kbps
    Channel(s) : 2 channels
    Sampling rate : 48.0 KHz
    Compression mode : Lossy
    Stream size : 207 MiB (14%)
    Alignment : Split accross interleaves
    Interleave, duration : 33 ms (1.00 video frame)
    Interleave, preload duratio : 500 ms
    Title : Профессиональный многоголосый (Киномания)
    Audio #2
    ID : 2
    Format : MPEG Audio
    Format version : Version 1
    Format profile : Layer 3
    Mode : Joint stereo
    Codec ID : 55
    Codec ID/Hint : MP3
    Duration : 2h 30mn
    Bit rate mode : Constant
    Bit rate : 192 Kbps
    Channel(s) : 2 channels
    Sampling rate : 48.0 KHz
    Compression mode : Lossy
    Stream size : 207 MiB (14%)
    Alignment : Split accross interleaves
    Interleave, duration : 33 ms (1.00 video frame)
    Interleave, preload duratio : 500 ms
    Title : Дублированный (английский)

    Скриншот c названием фильма

    Скриншоты

    Скачать .torrent

    Скачать торрент-файл бесплатно и на максимальной скорости!

    Как скачивать? · Что такое торрент? · Рейтинг и ограничения

    !ВНИМАНИЕ!
    Сайт не распространяет и не хранит электронные версии произведений, а занимается лишь лишь предоставлением доступа к создаваемому пользователями каталогу ссылок на торрент-файлы, которые содержат только списки хеш-сумм, убедительная просьба с жалобами обращаться напрямую к пользователю. Файлы для обмена на трекере предоставлены пользователями сайта, и администрация не несёт ответственности за их содержание. Просьба не заливать файлы, защищенные авторскими правами, а также файлы нелегального содержания!

    [Профиль] [ЛС]
    Показать сообщения:    
    Ответить на тему

    Текущее время: Сегодня, в 23:50

    Часовой пояс: GMT + 2



    Вы не можете начинать темы
    Вы не можете отвечать на сообщения
    Вы не можете редактировать свои сообщения
    Вы не можете удалять свои сообщения
    Вы не можете голосовать в опросах
    Вы не можете прикреплять файлы к сообщениям
    Вы не можете скачивать файлы