BitTorrentTracker PerecTracker.org
BitTorrentTracker PerecTracker.org
    
Регистрация  ·  Вход
 
 · 
Забыли пароль?

  • Исчезнувшая / Gone Girl (Дэвид Финчер / David Fincher) [2014, США, триллер, драма, детектив, HDRip] Dub

    Ответить на тему
     
    Автор Сообщение

    Columb

    Создавать темы 20-Дек-2014 10:11

           

    [Цитировать]

    Исчезнувшая / Gone Girl
    Страна: США
    Жанр: триллер, драма, детектив
    Год выпуска: 2014
    Продолжительность: 02:29:15-Перевод: Профессиональный (дублированный)
    Cубтитры: нет
    Режиссер: Дэвид Финчер / David Fincher-В ролях: Бен Аффлек, Розамунд Пайк, Кэрри Кун, Ким Диккенс, Нил Патрик Харрис, Тайлер Перри, Патрик Фьюджит, Бойд Холбрук, Мисси Пайл, Эмили Ратажковски-Описание: Все было готово для празднования пятилетнего юбилея супружеской жизни, когда вдруг необъяснимо пропал один из виновников торжества. Остались следы борьбы в доме, кровь, которую явно пытались стереть, — и цепочка «ключей» в игре под названием «охота за сокровищами»; красивая, умная и невероятно изобретательная жена ежегодно устраивала ее для своего обожаемого мужа. И похоже, что эти «ключи» — размещенные ею тут и там странные записки и не менее странные безделушки — дают единственный шанс пролить свет на судьбу исчезнувшей. Вот только не придется ли «охотнику» в процессе поиска раскрыть миру и пару-тройку собственных малосимпатичных тайн?-
    Сэмпл: http://multi-up.com/1021552-Качество видео: HDRip
    Формат видео: AVI-Видео: 720x304 (2,35:1), 23,976 fps, XviD ~942 kbps avg, 0.179 bit/pixel
    Аудио: 48 kHz, AC3 Dolby Digital, 3/2 (L,C,R,l,r) + LFE ch, ~448 kbps

    MediaInfo

    Общее
    Полное имя : C:DownloadsИсчезнувшая.2014.HDRip.1.46GB.avi
    Формат : AVI
    Формат/Информация : Audio Video Interleave
    Размер файла : 1,46 Гбайт
    Продолжительность : 2 ч. 29 м.
    Общий поток : 1399 Кбит/сек
    Программа кодирования : VirtualDubMod 1.5.10.3 | www.virtualdub-fr.org || (build 2550/release)
    Библиотека кодирования : VirtualDubMod build 2550/release
    Видео
    Идентификатор : 0
    Формат : MPEG-4 Visual
    Профиль формата : Advanced Simple@L5
    Параметр BVOP формата : 2
    Параметр QPel формата : Нет
    Параметр GMC формата : Без точки перехода
    Параметр матрицы формата : Default (MPEG)
    Идентификатор кодека : XVID
    Идентификатор кодека/Подсказка : XviD
    Продолжительность : 2 ч. 29 м.
    Битрейт : 942 Кбит/сек
    Ширина : 720 пикселей
    Высота : 304 пикселя
    Соотношение сторон : 2,35:1
    Частота кадров : 23,976 кадра/сек
    Цветовое пространство : YUV
    Субдискретизация насыщенности : 4:2:0
    Битовая глубина : 8 бит
    Тип развёртки : Прогрессивная
    Метод сжатия : С потерями
    Бит/(Пиксели*Кадры) : 0.179
    Размер потока : 1004 Мбайт (67%)
    Библиотека кодирования : XviD 1.2.1 (UTC 2008-12-04)
    Аудио
    Идентификатор : 1
    Формат : AC-3
    Формат/Информация : Audio Coding 3
    Расширение режима : CM (complete main)
    Параметр Endianness формата : Big
    Идентификатор кодека : 2000
    Продолжительность : 2 ч. 29 м.
    Вид битрейта : Постоянный
    Битрейт : 448 Кбит/сек
    Каналы : 6 каналов
    Расположение каналов : Front: L C R, Side: L R, LFE
    Частота : 48,0 КГц
    Битовая глубина : 16 бит
    Метод сжатия : С потерями
    Размер потока : 478 Мбайт (32%)
    Выравнивание : Разделение по промежуткам
    Продолжительность промежутка : 42 мс. (1,00 видеокадр)
    Время предзагрузки промежутка : 500 мс.

    Скриншот c названием фильма

    Скриншоты


    Скачать .torrent

    Скачать торрент-файл бесплатно и на максимальной скорости!

    Как скачивать? · Что такое торрент? · Рейтинг и ограничения

    !ВНИМАНИЕ!
    Сайт не распространяет и не хранит электронные версии произведений, а занимается лишь лишь предоставлением доступа к создаваемому пользователями каталогу ссылок на торрент-файлы, которые содержат только списки хеш-сумм, убедительная просьба с жалобами обращаться напрямую к пользователю. Файлы для обмена на трекере предоставлены пользователями сайта, и администрация не несёт ответственности за их содержание. Просьба не заливать файлы, защищенные авторскими правами, а также файлы нелегального содержания!

    [Профиль] [ЛС]

    -746

    Создавать темы 24-Янв-2015 23:26 (спустя 1 месяц 4 дня)

           

    Топик был перенесен из форума Зарубежные Фильмы (Новинки) в форум Фильмы 2011-2014

    -sasha2006 

    _________________
    Как бы ты высоко не летал, не забывай, с кем ты ползал..
     
    Показать сообщения:    
    Ответить на тему

    Текущее время: Сегодня, в 14:37

    Часовой пояс: GMT + 2



    Вы не можете начинать темы
    Вы не можете отвечать на сообщения
    Вы не можете редактировать свои сообщения
    Вы не можете удалять свои сообщения
    Вы не можете голосовать в опросах
    Вы не можете прикреплять файлы к сообщениям
    Вы не можете скачивать файлы