BitTorrentTracker PerecTracker.org
BitTorrentTracker PerecTracker.org
    
Регистрация  ·  Вход
 
 · 
Забыли пароль?

  • Правдивая ложь / True Lies (Джеймс Кэмерон / James Cameron) [1994, США, Комедийный боевик, HDRip] AVO (Юрий Живов) + Original Eng

    Ответить на тему
     
    Автор Сообщение

    Columb

    Создавать темы 20-Дек-2014 10:09

           

    [Цитировать]

    Правдивая ложь / True Lies
    Страна: США
    Жанр: Комедийный боевик
    Год выпуска: 1994
    Продолжительность: 02:22:04
    Перевод: Авторский (одноголосый закадровый) Юрий Живов
    Оригинальная дорожка: английский
    Cубтитры: нет
    Режиссер: Джеймс Кэмерон / James Cameron
    В ролях: Арнольд Шварценеггер, Джейми Ли Кёртис, Том Арнольд, Билл Пэкстон, Тиа Каррере, Арт Малик, Элиза Душку, Грант Хеслов, Чарлтон Хестон, Маршалл Манеш
    Описание: 1. Для своей семьи Гарри Таскер — любящий муж и отец, человек скромный и рассеянный, обыкновенный продавец компьютеров, «не вылезающий» с работы ни днем, ни ночью. Но лишь немногие знают, что на самом деле Гарри — специальный агент тайной правительственной службы, специализирующийся на особо опасных заданиях, владеющий кучей языков, всеми видами оружия и всеми возможными способами «отправки» злодеев на тот свет.
    Агент Таскер и дальше продолжал бы вести двойную жизнь, если бы зловещие арабские террористы не похитили Гарри, а вместе с ним и его ничего не подозревающую жену Хэлен. Но бандиты, к своему несчастью, даже не подозревали с кем связались. И Хэлен узнала, что муж ее совсем не компьютерщик, и что она пятнадцать лет прожила с человеком, рядом с которым мускулистый Рэмбо выглядит ребенком…
    2. Арни — скромный торговец компьютерами. В этом убеждена его жена (по фильму), в великолепном исполнении Джэми Ли Кертис. Но разве такое возможно? Конечно, нет. Конечно же, он секретный суперагент почище Джеймса Бонда, выполняющий важное задание по борьбе с арабскими террористами. Случайно он подслушал, как его жене кто-то назначил интимное свидание и жутко заревновал. Вместо террористов вся электронная и мускульная мощь спецслужб будет направлена на жалкого бабника, торговца подержанными авто. Одновременно идет искусный и беспощадный розыгрыш ничего не подозревающей женушки. Это дико смешно. Но дальше в действие вклиниваются настоящие террористы, и запускается такая карусель трюков и феерических спецэффектов, что в глазах начинает рябить. Как и многослойный бутерброд-гигант из "Макдональдса", этот комедийный супербоевик кому-то придется не по вкусу, а другим в самый раз. Сценарий заимствован из французского фильма "Тотальная слежка" Клода Зиди. (М. Иванов)
    Сэмпл: https://yadi.sk/i/ZGNeWCfCdVg9e
    Качество видео: HDRip
    Формат видео: AVI
    Видео: Xvid, 720x304, 23.98 fps, 1 742 Kbps, 0.332 bit/pixel
    Аудио: Dolby AC3 44100Hz, stereo 255kbps
    Аудио 2: 48 kHz, AC3 Dolby Digital, 2/0 (L,R) ch, ~192 kbps Eng

    MediaInfo

    Правдивая ложь - True Lies [by ale_x2008].avi
    Format : AVI
    Format/Info : Audio Video Interleave
    Format profile : OpenDML
    File size : 2.19 GiB
    Duration : 2h 22mn
    Overall bit rate : 2 208 Kbps
    Writing application : VirtualDubMod 1.5.10.2 (build 2540/release)
    Writing library : VirtualDubMod build 2540/release
    Video
    ID : 0
    Format : MPEG-4 Visual
    Format profile : Advanced Simple@L5
    Format settings, BVOP : 3
    Format settings, QPel : No
    Format settings, GMC : No warppoints
    Format settings, Matrix : Default (H.263)
    Codec ID : XVID
    Codec ID/Hint : XviD
    Duration : 2h 22mn
    Bit rate : 1 742 Kbps
    Width : 720 pixels
    Height : 304 pixels
    Display aspect ratio : 2.35:1
    Frame rate : 23.976 fps
    Color space : YUV
    Chroma subsampling : 4:2:0
    Bit depth : 8 bits
    Scan type : Progressive
    Compression mode : Lossy
    Bits/(Pixel*Frame) : 0.332
    Stream size : 1.73 GiB (79%)
    Writing library : XviD 1.2.0.dev47 (UTC 2006-11-01)
    Audio #1
    ID : 1
    Format : AC-3
    Format/Info : Audio Coding 3
    Mode extension : CM (complete main)
    Format settings, Endianness : Big
    Codec ID : 2000
    Duration : 2h 22mn
    Bit rate mode : Constant
    Bit rate : 256 Kbps
    Channel(s) : 2 channels
    Channel positions : Front: L R
    Sampling rate : 44.1 KHz
    Bit depth : 16 bits
    Compression mode : Lossy
    Stream size : 260 MiB (12%)
    Alignment : Split accross interleaves
    Interleave, duration : 42 ms (1.00 video frame)
    Interleave, preload duration : 500 ms
    Audio #2
    ID : 2
    Format : AC-3
    Format/Info : Audio Coding 3
    Mode extension : CM (complete main)
    Format settings, Endianness : Big
    Codec ID : 2000
    Duration : 2h 22mn
    Bit rate mode : Constant
    Bit rate : 192 Kbps
    Channel(s) : 2 channels
    Channel positions : Front: L R
    Sampling rate : 48.0 KHz
    Bit depth : 16 bits
    Compression mode : Lossy
    Delay relative to video : 6s 500ms
    Stream size : 195 MiB (9%)
    Alignment : Split accross interleaves
    Interleave, duration : 42 ms (1.00 video frame)
    Interleave, preload duration : 500 ms

    Скриншоты


    Скачать .torrent

    Скачать торрент-файл бесплатно и на максимальной скорости!

    Как скачивать? · Что такое торрент? · Рейтинг и ограничения

    !ВНИМАНИЕ!
    Сайт не распространяет и не хранит электронные версии произведений, а занимается лишь лишь предоставлением доступа к создаваемому пользователями каталогу ссылок на торрент-файлы, которые содержат только списки хеш-сумм, убедительная просьба с жалобами обращаться напрямую к пользователю. Файлы для обмена на трекере предоставлены пользователями сайта, и администрация не несёт ответственности за их содержание. Просьба не заливать файлы, защищенные авторскими правами, а также файлы нелегального содержания!

    [Профиль] [ЛС]
    Показать сообщения:    
    Ответить на тему

    Текущее время: Сегодня, в 23:53

    Часовой пояс: GMT + 2



    Вы не можете начинать темы
    Вы не можете отвечать на сообщения
    Вы не можете редактировать свои сообщения
    Вы не можете удалять свои сообщения
    Вы не можете голосовать в опросах
    Вы не можете прикреплять файлы к сообщениям
    Вы не можете скачивать файлы