BitTorrentTracker PerecTracker.org
BitTorrentTracker PerecTracker.org
    
Регистрация  ·  Вход
 
 · 
Забыли пароль?

  • Уснувший пассажир (Ярополк Лапшин) [1993, Детектив, DVB]

    Ответить на тему
     
    Автор Сообщение

    Columb

    Создавать темы 06-Дек-2014 12:04

           

    [Цитировать]

    Уснувший пассажир
    Жанр: Детектив
    Год выпуска: 1993
    Продолжительность: 1:17:50
    Режиссёр: Ярополк Лапшин
    В ролях: Анатолий Кузнецов, Ольга Остроумова, Владимир Кашпур, Владимир Кузнецов (VI), Игорь Шарапов, Шавкат Газиев, Александр Пашутин, Сейдулла Молдаханов, Николай Шушарин, Виталий Краев, Валерий Храмцов
    Описание: На затерянном в степи аэродроме совершает непредвиденную посадку самолет, следующий рейсом из Москвы в Сингапур - столицу одного из азиатских государств. Пока экипаж производит ремонт, пассажиры прогуливаются неподалеку. Вскоре в салоне воздушного судна находят труп иностранного туриста, летевшего первым классом. Среди тех, кто летит этим рейсом, оказывается бывший полковник Московского уголовного розыска Смирнов, который сразу решает провести расследование преступления и найти виновного. Кому же мог помешать несчастный иностранец? Случайная он жертва, или убийство было тщательно спланировано? Бывший следователь по особо важным делам начинает наблюдать за всеми - ведь убийцей может оказаться кто угодно. Так, отбрасывая неудачные версии одну за другой, неутомимый следователь наконец устанавливает личность преступника, который пытался скрыться. Но правда оказывается настолько неожиданной и жуткой, что даже опытный сыщик не сразу соглашается в нее верить: преступников оказывается двое. Зато напарник-убийца очень быстро оценивает ситуацию и не теряет времени даром, пытаясь уничтожить полковника - единственного, кто знает все о его темных делах...
    Доп. информация: Производство: Евразия (Свердловская к/ст) при участии Роскомкино
    Сэмпл: https://www.sendspace.com/file/g528m9
    Качество видео: DVB
    Формат видео: MPEG-PS
    Видео: MPEG Video , 704x576(4:3), 25,000 кадров/сек, 2 404 Kbps
    Аудио: MPEG Audio, 48,0 КГц, 192 Кбит/сек, 2 канала

    MediaInfo

    Complete name Уснувший пассажир 1993.mpg
    Format : MPEG-PS
    File size : 1.44 GiB
    Duration : 1h 17mn
    Overall bit rate mode : Variable
    Overall bit rate : 2 649 Kbps
    Video
    ID : 224 (0xE0)
    Format : MPEG Video
    Format version : Version 2
    Format profile : Main@Main
    Format settings, BVOP : Yes
    Format settings, Matrix : Custom
    Format settings, GOP : Variable
    Format settings, picture st : Frame
    Duration : 1h 17mn
    Bit rate mode : Variable
    Bit rate : 2 404 Kbps
    Maximum bit rate : 15.0 Mbps
    Width : 704 pixels
    Height : 576 pixels
    Display aspect ratio : 4:3
    Frame rate : 25.000 fps
    Standard : PAL
    Color space : YUV
    Chroma subsampling : 4:2:0
    Bit depth : 8 bits
    Scan type : Interlaced
    Scan order : Top Field First
    Compression mode : Lossy
    Bits/(Pixel*Frame) : 0.237
    Time code of first frame : 00:10:03:01
    Time code source : Group of pictures header
    GOP, Open/Closed : Open
    Stream size : 1.31 GiB (91%)
    Audio
    ID : 192 (0xC0)
    Format : MPEG Audio
    Format version : Version 1
    Format profile : Layer 2
    Duration : 1h 17mn
    Bit rate mode : Constant
    Bit rate : 192 Kbps
    Channel(s) : 2 channels
    Sampling rate : 48.0 KHz
    Compression mode : Lossy
    Delay relative to video : -49ms
    Stream size : 107 MiB (7%)

    Скриншот c названием фильма

    Скриншоты

    Скачать .torrent

    Скачать торрент-файл бесплатно и на максимальной скорости!

    Как скачивать? · Что такое торрент? · Рейтинг и ограничения

    !ВНИМАНИЕ!
    Сайт не распространяет и не хранит электронные версии произведений, а занимается лишь лишь предоставлением доступа к создаваемому пользователями каталогу ссылок на торрент-файлы, которые содержат только списки хеш-сумм, убедительная просьба с жалобами обращаться напрямую к пользователю. Файлы для обмена на трекере предоставлены пользователями сайта, и администрация не несёт ответственности за их содержание. Просьба не заливать файлы, защищенные авторскими правами, а также файлы нелегального содержания!

    [Профиль] [ЛС]
    Показать сообщения:    
    Ответить на тему

    Текущее время: Сегодня, в 19:57

    Часовой пояс: GMT + 2



    Вы не можете начинать темы
    Вы не можете отвечать на сообщения
    Вы не можете редактировать свои сообщения
    Вы не можете удалять свои сообщения
    Вы не можете голосовать в опросах
    Вы не можете прикреплять файлы к сообщениям
    Вы не можете скачивать файлы