BitTorrentTracker PerecTracker.org
BitTorrentTracker PerecTracker.org
    
Регистрация  ·  Вход
 
 · 
Забыли пароль?

  • Iyeoka • Leverkusener Jazztage [2014, Neo soul, R&B, soul, funk, jazz, HDTV 720p]

    Ответить на тему
     
    Автор Сообщение

    Columb

    Создавать темы 05-Дек-2014 13:29

           

    [Цитировать]

    Iyeoka
    Leverkusener Jazztage


    Жанр: Neo soul, R&B, soul, funk, jazz
    Продолжительность: 00:58:30
    Год выпуска: 2014
    Качество: HDTV 720p
    Контейнер: TS
    Видео кодек: H.264
    Аудио кодек: AC3
    Видео: MPEG4 Video (H264) 1280x720 50fps 12.9 Mbps
    Аудио: Dolby AC3 48000Hz stereo 448kbps

    Треклист

    01. Every Second Every Hour
    02. Broken Hearts Anthem
    03. Breakdown Mode
    04. Simply Falling
    05 Millionaire
    06. Testify
    07. Akomen Of Udomi
    08. Denial
    09. Revolution

    Отчёт MediaInfo / BDInfo

    GeneralID : 1 (0x1)Complete name : L:\Iyeoka - Leverkusener Jazztage 2014.tsFormat : MPEG-TSFile size : 5.73 GiBDuration : 58mn 30sOverall bit rate mode : VariableOverall bit rate : 14.0 Mbps
    VideoID : 6510 (0x196E)Menu ID : 1 (0x1)Format : AVCFormat/Info : Advanced Video CodecFormat profile : High@L4.0Format settings, CABAC : YesFormat settings, ReFrames : 6 framesCodec ID : 27Duration : 58mn 30sBit rate : 12.9 MbpsWidth : 1 280 pixelsHeight : 720 pixelsDisplay aspect ratio : 16:9Frame rate : 50.000 fpsColor space : YUVChroma subsampling : 4:2:0Bit depth : 8 bitsScan type : ProgressiveBits/(Pixel*Frame) : 0.279Stream size : 5.26 GiB (92%)Color primaries : BT.709Transfer characteristics : BT.709Matrix coefficients : BT.709
    AudioID : 6522 (0x197A)Menu ID : 1 (0x1)Format : AC-3Format/Info : Audio Coding 3Mode extension : CM (complete main)Format settings, Endianness : BigCodec ID : 6Duration : 58mn 30sBit rate mode : ConstantBit rate : 448 KbpsChannel(s) : 2 channelsChannel positions : Front: L RSampling rate : 48.0 KHzBit depth : 16 bitsCompression mode : LossyStream size : 187 MiB (3%)Language : German

    Скриншоты


    Скачать .torrent

    Скачать торрент-файл бесплатно и на максимальной скорости!

    Как скачивать? · Что такое торрент? · Рейтинг и ограничения

    !ВНИМАНИЕ!
    Сайт не распространяет и не хранит электронные версии произведений, а занимается лишь лишь предоставлением доступа к создаваемому пользователями каталогу ссылок на торрент-файлы, которые содержат только списки хеш-сумм, убедительная просьба с жалобами обращаться напрямую к пользователю. Файлы для обмена на трекере предоставлены пользователями сайта, и администрация не несёт ответственности за их содержание. Просьба не заливать файлы, защищенные авторскими правами, а также файлы нелегального содержания!

    [Профиль] [ЛС]
    Показать сообщения:    
    Ответить на тему

    Текущее время: Сегодня, в 15:50

    Часовой пояс: GMT + 2



    Вы не можете начинать темы
    Вы не можете отвечать на сообщения
    Вы не можете редактировать свои сообщения
    Вы не можете удалять свои сообщения
    Вы не можете голосовать в опросах
    Вы не можете прикреплять файлы к сообщениям
    Вы не можете скачивать файлы