BitTorrentTracker PerecTracker.org
BitTorrentTracker PerecTracker.org
    
Регистрация  ·  Вход
 
 · 
Забыли пароль?

  • Неминуемая опасность / Dangerous Waters (Кэтрин Киран / Catherine Cyran) [1999, США, триллер, приключения, VHSRip] MVO (Первый канал)

    Ответить на тему
     
    Автор Сообщение

    Columb

    Создавать темы 30-Ноя-2014 16:14

           

    [Цитировать]

    --Неминуемая опасность / Dangerous Waters--Страна: США
    Жанр: триллер, приключения
    Год выпуска: 1999
    Продолжительность: 01:27:11
    Перевод: Профессиональный (многоголосый закадровый) Первый канал
    Cубтитры: нет
    Режиссер: Кэтрин Киран / Catherine Cyran
    В ролях: Конни Селлекка, Мэтт МакКой, Алана Остин, Энтони ДеФилиппо, Брент Хинкли, Джереми Робертс, Стив Догерти, Тим Эллиотт, Крис Боргнайн
    Описание: Мать вместе со своими детьми и приятелем Бобом отправляется в плавание на катамаранах по горной реке. Но воды в этой местности оказываются слишком опасными: вскоре путешественники обнаруживают человека без сознания. Они решают подождать, пока он придёт в себя, но тут подоспевает новая напасть: вся группа становится заложниками двух заключенных, бежавших из тюрьмы. Эти люди требуют, чтобы Боб вернул им украденные деньги. Чтобы успокоить Сару и детей Боб разыгрывает настоящий спектакль пытаясь убедить девушку в своей непричастности к этому странному делу. Но говорит ли он правду?
    Качество видео: VHSRip
    Формат видео: AVI
    Видео: XviD build 50 720x560 (1.29:1) 25 fps 2121 kbps
    Аудио: AC3 Dolby Digital 48 kHz 192.00 kbps 2/0 (L,R) ch
    ------Источник: Оцифровка VHS (личный архив)
    При размещении данного релиза на других сайтах ссылка на автора Серый75 крайне желательна!!!)
    Впервые в сети с переводом!

    MediaInfo

    General
    Complete name : G:\Раздачи rutracker.org\Dangerous Waters (1999)\Dangerous Waters (1999).avi
    Format : AVI
    Format/Info : Audio Video Interleave
    File size : 1.42 GiB
    Duration : 1h 27mn
    Overall bit rate : 2 324 Kbps
    Movie name : Dangerous Waters (1999)
    Original source form/Distributed by : Личный архив
    Encoded by : Серый75 / Серый75
    Mastered date : 29.11.14
    Writing application : XviD4PSP 5.0
    Original source medium : кассета VHS
    Video
    ID : 0
    Format : MPEG-4 Visual
    Format profile : Advanced Simple@L5
    Format settings, BVOP : 2
    Format settings, QPel : No
    Format settings, GMC : No warppoints
    Format settings, Matrix : Default (H.263)
    Codec ID : XVID
    Codec ID/Hint : XviD
    Duration : 1h 27mn
    Bit rate : 2 122 Kbps
    Width : 720 pixels
    Height : 560 pixels
    Display aspect ratio : 1.286
    Frame rate : 25.000 fps
    Color space : YUV
    Chroma subsampling : 4:2:0
    Bit depth : 8 bits
    Scan type : Progressive
    Compression mode : Lossy
    Bits/(Pixel*Frame) : 0.211
    Stream size : 1.29 GiB (91%)
    Writing library : XviD 1.2.1 (UTC 2008-12-04)
    Audio
    ID : 1
    Format : AC-3
    Format/Info : Audio Coding 3
    Mode extension : CM (complete main)
    Format settings, Endianness : Big
    Codec ID : 2000
    Duration : 1h 27mn
    Bit rate mode : Constant
    Bit rate : 192 Kbps
    Channel(s) : 2 channels
    Channel positions : Front: L R
    Sampling rate : 48.0 KHz
    Bit depth : 16 bits
    Compression mode : Lossy
    Stream size : 120 MiB (8%)
    Alignment : Aligned on interleaves
    Interleave, duration : 40 ms (1.00 video frame)
    Interleave, preload duration : 512 ms
    Language : Не определен

    Скриншот c названием фильма

    Скриншоты

    Скачать .torrent

    Скачать торрент-файл бесплатно и на максимальной скорости!

    Как скачивать? · Что такое торрент? · Рейтинг и ограничения

    !ВНИМАНИЕ!
    Сайт не распространяет и не хранит электронные версии произведений, а занимается лишь лишь предоставлением доступа к создаваемому пользователями каталогу ссылок на торрент-файлы, которые содержат только списки хеш-сумм, убедительная просьба с жалобами обращаться напрямую к пользователю. Файлы для обмена на трекере предоставлены пользователями сайта, и администрация не несёт ответственности за их содержание. Просьба не заливать файлы, защищенные авторскими правами, а также файлы нелегального содержания!

    [Профиль] [ЛС]
    Показать сообщения:    
    Ответить на тему

    Текущее время: Сегодня, в 06:07

    Часовой пояс: GMT + 2



    Вы не можете начинать темы
    Вы не можете отвечать на сообщения
    Вы не можете редактировать свои сообщения
    Вы не можете удалять свои сообщения
    Вы не можете голосовать в опросах
    Вы не можете прикреплять файлы к сообщениям
    Вы не можете скачивать файлы