BitTorrentTracker PerecTracker.org
BitTorrentTracker PerecTracker.org
    
Регистрация  ·  Вход
 
 · 
Забыли пароль?

  • Транспортная революция (Татьяна Маттейс) [2014, научно-популярный, HDTVRip]

    Ответить на тему
     
    Автор Сообщение

    Columb

    Создавать темы 30-Ноя-2014 15:09

           

    [Цитировать]

    Транспортная революция
    Дата/Год выпуска: 2014
    Страна: Россия
    Жанр: научно-популярный
    Продолжительность: 00:43:38
    Перевод: Не требуется
    Русские субтитры: нет
    Оригинальная аудиодорожка: русский
    Режиссер: Татьяна Маттейс
    Описание: Сегодня мир переживает очередной виток транспортной революции. Ее движущей силой опять становятся поезда. Поезда нового поколения. Даже внешне они похожи на ракеты и развивают скорость до 400 километров в час. В России в ближайшие годы тоже создадут сеть дорог, по которым будут ходить такие поезда. Создатели фильма знакомят зрителя с тем, как функционируют скоростные железнодорожные магистрали в Италии, Франции, Японии. Зритель узнает, как создаются поезда будущего и какие удобства должны включать вагоны в них. Уже сейчас ясно, что создание высокоскоростной железнодорожной сети не только соединит города и позволит населению депрессивных провинциальных городов ездить на работу в крупные промышленные центры, но и послужит развитию этих населенных пунктов, повернув потоки людей в другую сторону. Бизнесу выгодно создавать рабочие места в более дешевых регионах, а транспортная доступность позволит и жителям столицы ездить туда. Создатели фильма на примере японской, итальянской и французской семей рассказывают, какие преимущества пришли в их жизнь с развитием высокоскоростного железнодорожного сообщения.
    качество: HDTVRip
    формат: AVI
    Видео: MPEG4, XviD, 720x400 (16:9), 25.000 fps, 1 554 Kbps (0.216 bit/pixel)
    Аудио: AC-3, 48.0 KHz, 2 ch, 192 Kbps, CBR

    MediaInfo

    GeneralComplete name : G:\документалка\Транспортная революция.aviFormat : AVIFormat/Info : Audio Video InterleaveFile size : 549 MiBDuration : 43mn 44sOverall bit rate : 1 756 KbpsWriting application : VirtualDubMod 1.5.10.3 | www.virtualdub-fr.org || (build 2550/release)Writing library : VirtualDubMod build 2550/release
    VideoID : 0Format : MPEG-4 VisualFormat profile : Advanced Simple@L5Format settings, BVOP : 1Format settings, QPel : NoFormat settings, GMC : No warppointsFormat settings, Matrix : Default (H.263)Codec ID : XVIDCodec ID/Hint : XviDDuration : 43mn 44sBit rate : 1 554 KbpsWidth : 720 pixelsHeight : 400 pixelsDisplay aspect ratio : 16:9Frame rate : 25.000 fpsColor space : YUVChroma subsampling : 4:2:0Bit depth : 8 bitsScan type : ProgressiveCompression mode : LossyBits/(Pixel*Frame) : 0.216Stream size : 486 MiB (89%)Writing library : XviD 1.2.1 (UTC 2008-12-04)
    AudioID : 1Format : AC-3Format/Info : Audio Coding 3Mode extension : CM (complete main)Format settings, Endianness : BigCodec ID : 2000Duration : 43mn 44sBit rate mode : ConstantBit rate : 192 KbpsChannel(s) : 2 channelsChannel positions : Front: L RSampling rate : 48.0 KHzBit depth : 16 bitsCompression mode : LossyStream size : 60.1 MiB (11%)Alignment : Split accross interleavesInterleave, duration : 40 ms (1.00 video frame)Interleave, preload duration : 500 ms

    Скриншоты

    Скачать .torrent

    Скачать торрент-файл бесплатно и на максимальной скорости!

    Как скачивать? · Что такое торрент? · Рейтинг и ограничения

    !ВНИМАНИЕ!
    Сайт не распространяет и не хранит электронные версии произведений, а занимается лишь лишь предоставлением доступа к создаваемому пользователями каталогу ссылок на торрент-файлы, которые содержат только списки хеш-сумм, убедительная просьба с жалобами обращаться напрямую к пользователю. Файлы для обмена на трекере предоставлены пользователями сайта, и администрация не несёт ответственности за их содержание. Просьба не заливать файлы, защищенные авторскими правами, а также файлы нелегального содержания!

    [Профиль] [ЛС]
    Показать сообщения:    
    Ответить на тему

    Текущее время: Сегодня, в 11:49

    Часовой пояс: GMT + 2



    Вы не можете начинать темы
    Вы не можете отвечать на сообщения
    Вы не можете редактировать свои сообщения
    Вы не можете удалять свои сообщения
    Вы не можете голосовать в опросах
    Вы не можете прикреплять файлы к сообщениям
    Вы не можете скачивать файлы