BitTorrentTracker PerecTracker.org
BitTorrentTracker PerecTracker.org
    
Регистрация  ·  Вход
 
 · 
Забыли пароль?

  • Доярка из Хацапетовки - 3 / Сезон 3 / Серии: 1-16 из 16 (Павел Снисаренко) [2011, Мелодрама, HDTVRip-AVC]

    Ответить на тему
     
    Автор Сообщение

    Columb

    Создавать темы 30-Ноя-2014 15:07

           

    [Цитировать]

    Доярка из Хацапетовки - 3
    Год выпуска: 2011
    Производство: кинокомпания УПС
    Жанр: Мелодрама
    Продолжительность: ~00:45:00
    Субтитры: нет
    Режиссёр: Павел Снисаренко
    В ролях: Мария Куликова, Дмитрий Ульянов, Иван Волков, Кирилл Гребенщиков, Любовь Германова, Дмитрий Лаленков, Денис Курочка, Татьяна Назарова, Владимир Стержаков.
    Описание: Первый сезон сериала смотрел каждый третий телезритель Украины и России. А исполнители главных ролей Кирилл Жандаров и Евгения Осипова после выхода телефильма взлетели на пик актерской популярности и востребованности. Но это сказки заканчиваются на свадьбе героини и ее принца - в жизни с этого момента все только начинается ... Провинциальная Золушка Катя вышла замуж за своего прекрасного героя - сперва фиктивно, но затем их отношения переросли в настоящее чувство. Однако дальше их ждало разрушение семьи, ревность, авиакатастрофа, пластические операции ... Во Франции у Кати начинается новая жизнь - она живет счастливо с семьей. Но конкуренты ее свекра пытаются разрушить его бизнес, и он попадает в тюрьму. Чтобы помочь ему, Катя хочет продать свой ??ресторанный бизнес в Париже, и едет туда. Здесь ее ждут нелегкие беседы с сыном ее бывшего французского мужа, который пытается ее шантажировать и требует денег. Однажды в ее дом проникает преступник и она, защищаясь, бьет злоумышленника по голове и теряет сознание.

    Качество: HDTVRip-AVC
    Формат: MKV
    Видео кодек: H.264
    Аудио кодек: AC-3
    Видео: MPEG4 Video (H264) 1024x576, ~ 2480 kbps, 25.00fps, 0.168 bit/pixel
    Аудио: AC-3, 2 канала, 48,0 КГц, ~192 kbps, VBR
    Сторонней рекламы нет!

    MediaInfo

    GeneralUnique ID : 227075368892617346518161027125318472530 (0xAAD52010EDABF1378E3717103D675352)Complete name : Dojarka.iz.Hacapetovki-3.(04.serija).2011.HDTVRip.AVC.mkvFormat : MatroskaFormat version : Version 4 / Version 2File size : 854 MiBDuration : 43mn 46sOverall bit rate : 2 727 KbpsEncoded date : UTC 2014-11-16 20:32:54Writing application : mkvmerge v7.3.0 ('Nouages') 32bit built on Oct 22 2014 18:44:01Writing library : libebml v1.3.0 + libmatroska v1.4.1DURATION : 00:43:46.784000000NUMBER_OF_FRAMES : 82087NUMBER_OF_BYTES : 63042816_STATISTICS_WRITING_APP : mkvmerge v7.3.0 ('Nouages') 32bit built on Oct 22 2014 18:44:01_STATISTICS_WRITING_DATE_UTC : 2014-11-16 20:32:54_STATISTICS_TAGS : BPS DURATION NUMBER_OF_FRAMES NUMBER_OF_BYTES
    VideoID : 1Format : AVCFormat/Info : Advanced Video CodecFormat profile : High@L4.1Format settings, CABAC : YesFormat settings, ReFrames : 9 framesCodec ID : V_MPEG4/ISO/AVCDuration : 43mn 46sBit rate : 2 481 KbpsWidth : 1 024 pixelsHeight : 576 pixelsDisplay aspect ratio : 16:9Frame rate mode : ConstantFrame rate : 25.000 fpsColor space : YUVChroma subsampling : 4:2:0Bit depth : 8 bitsScan type : ProgressiveBits/(Pixel*Frame) : 0.168Stream size : 777 MiB (91%)Writing library : x264 core 142 r2431 ac76440Encoding settings : cabac=1 / ref=9 / deblock=1:-3:-3 / analyse=0x3:0x133 / me=umh / subme=9 / psy=1 / psy_rd=1.00:0.00 / mixed_ref=1 / me_range=24 / chroma_me=1 / trellis=2 / 8x8dct=1 / cqm=0 / deadzone=21,11 / fast_pskip=1 / chroma_qp_offset=-2 / threads=12 / lookahead_threads=1 / sliced_threads=0 / nr=0 / decimate=1 / interlaced=0 / bluray_compat=0 / constrained_intra=0 / bframes=6 / b_pyramid=2 / b_adapt=2 / b_bias=0 / direct=3 / weightb=1 / open_gop=0 / weightp=2 / keyint=250 / keyint_min=25 / scenecut=40 / intra_refresh=0 / rc_lookahead=60 / rc=crf / mbtree=1 / crf=18.0 / qcomp=0.60 / qpmin=10 / qpmax=51 / qpstep=4 / vbv_maxrate=62500 / vbv_bufsize=78125 / crf_max=0.0 / nal_hrd=none / filler=0 / ip_ratio=1.40 / aq=1:1.00Language : RussianDefault : YesForced : NoDURATION : 00:43:46.840000000NUMBER_OF_FRAMES : 65671NUMBER_OF_BYTES : 831812124_STATISTICS_WRITING_APP : mkvmerge v7.3.0 ('Nouages') 32bit built on Oct 22 2014 18:44:01_STATISTICS_WRITING_DATE_UTC : 2014-11-16 20:32:54_STATISTICS_TAGS : BPS DURATION NUMBER_OF_FRAMES NUMBER_OF_BYTES
    AudioID : 2Format : AC-3Format/Info : Audio Coding 3Mode extension : CM (complete main)Format settings, Endianness : BigCodec ID : A_AC3Duration : 43mn 46sBit rate mode : ConstantBit rate : 192 KbpsChannel count : 2 channelsChannel positions : Front: L RSampling rate : 48.0 KHzBit depth : 16 bitsCompression mode : LossyStream size : 60.1 MiB (7%)Language : RussianDefault : YesForced : No
    Раздача группы:
    Отдельное спасибо daboen за предоставление материала.

    Внимание ! Раздача ведётся путём добавления новых серий

    Внимание! Раздача ведётся путём добавления новых серий; при каждом добавлении создётся новый торрент. Чтобы начать докачку новой серии, пользователям необходимо сделать следующее:
    (1) остановить скачивание,
    (2) удалить старый торрент у себя из клиента (старые серии удалять не надо),
    (3) скачать новый торрент и запустить его у себя в клиенте вместо старого, при этом указать клиенту путь в старую папку куда и должно происходить скачивание новых серий.
    Ваш клиент при этом должен произвести хеширование (проверку) старой папки (если не производит сам - помогите ему сделать это), и будет докачивать только те серии которых у вас ещё нет. Старые серии при этом не удаляются, а продолжают раздаваться!
    Eсли вы уже удалили старые серии, то предотвратить повторную закачку старых серий можно, отжав галочку в соответсвующих местах при запуске нового торрента. По возможности, желательно не удалять старые серии как можно дольше чтобы релизёр не столько продолжал раздавать старые серии, а смог сконцентрироваться на новых.
    ВНИМАНИЕ! ТОРРЕНТ ПЕРЕЗАЛИТ! ДОБАВЛЕНА 16-ая СЕРИИ!

    Скриншоты

    Скачать .torrent

    Скачать торрент-файл бесплатно и на максимальной скорости!

    Как скачивать? · Что такое торрент? · Рейтинг и ограничения

    !ВНИМАНИЕ!
    Сайт не распространяет и не хранит электронные версии произведений, а занимается лишь лишь предоставлением доступа к создаваемому пользователями каталогу ссылок на торрент-файлы, которые содержат только списки хеш-сумм, убедительная просьба с жалобами обращаться напрямую к пользователю. Файлы для обмена на трекере предоставлены пользователями сайта, и администрация не несёт ответственности за их содержание. Просьба не заливать файлы, защищенные авторскими правами, а также файлы нелегального содержания!

    [Профиль] [ЛС]
    Показать сообщения:    
    Ответить на тему

    Текущее время: Сегодня, в 06:11

    Часовой пояс: GMT + 2



    Вы не можете начинать темы
    Вы не можете отвечать на сообщения
    Вы не можете редактировать свои сообщения
    Вы не можете удалять свои сообщения
    Вы не можете голосовать в опросах
    Вы не можете прикреплять файлы к сообщениям
    Вы не можете скачивать файлы