BitTorrentTracker PerecTracker.org
BitTorrentTracker PerecTracker.org
    
Регистрация  ·  Вход
 
 · 
Забыли пароль?

  • Полночное разрешение / La permission de minuit (Дэльфин Глейз / Delphine Gleize) [2011 г., драма, DVDRip]

    Ответить на тему
     
    Автор Сообщение

    Columb

    Создавать темы 20-Фев-2013 11:44

           

    [Цитировать]

    Полночное разрешение / La permission de minuit-Год выпуска: 2011
    Страна: Франция
    Жанр: драма
    Продолжительность: 01:46:26
    Перевод: Любительский (одноголосый, закадровый)
    Субтитры: нет
    Режиссер: Дэльфин Глейз / Delphine Gleize


    В ролях: Венсан Линдон, Эммануэль Дево, Quentin Challal, Кэролайн Пруст, Натали Бутефо, Лорен Капеллуто, Солен Риго, Максим Ренард, Alexandre Boucher, Noémie Dujardin, Доминик Байенс, Tiana Salles
    Описание: 13-летний Ромен болен редкой генетической болезнью, из-за которой он не может появляться на солнечном свете. 50-летний Давид профессор дерматологии, который присматривал и ухаживал за ним с двухлетнего возраста. За эти годы они сильно привязались друг к другу, и между ними возникла необычная дружба, но теперь Давида ожидает перевод в другое заведение и неизбежное расставание со своим пациентом и близким другом, к которому тот совершенно не готов.
    Качество: DVDRip
    Формат: AVI
    Видео кодек: XviD
    Аудио кодек: AC3
    Видео: XviD, 720x304 (2.35:1), 1637 kbps, 25 fps, 0,299 bpp
    Аудио: AC3 / 2.0 / 48 kHz / 192 kbps / 16 bit

    Скриншоты



    MediaInfo

    General
    Complete name : F:\LaPermissionDeMinuit_2011_1400t.avi
    Format : AVI
    Format/Info : Audio Video Interleave
    File size : 1.37 GiB
    Duration : 1h 46mn
    Overall bit rate : 1 840 Kbps
    Writing application : VirtualDubMod 1.5.10.2 (build 2540/release)
    Writing library : VirtualDubMod build 2540/release
    Video
    ID : 0
    Format : MPEG-4 Visual
    Format profile : Advanced Simple@L5
    Format settings, BVOP : 2
    Format settings, QPel : No
    Format settings, GMC : No warppoints
    Format settings, Matrix : Default (MPEG)
    Codec ID : XVID
    Codec ID/Hint : XviD
    Duration : 1h 46mn
    Bit rate : 1 638 Kbps
    Width : 720 pixels
    Height : 304 pixels
    Display aspect ratio : 2.35:1
    Frame rate : 25.000 fps
    Color space : YUV
    Chroma subsampling : 4:2:0
    Bit depth : 8 bits
    Scan type : Progressive
    Compression mode : Lossy
    Bits/(Pixel*Frame) : 0.299
    Stream size : 1.22 GiB (89%)
    Writing library : XviD 1.2.1 (UTC 2008-12-04)
    Audio
    ID : 1
    Format : AC-3
    Format/Info : Audio Coding 3
    Mode extension : CM (complete main)
    Codec ID : 2000
    Duration : 1h 46mn
    Bit rate mode : Constant
    Bit rate : 192 Kbps
    Channel(s) : 2 channels
    Channel positions : Front: L R
    Sampling rate : 48.0 KHz
    Bit depth : 16 bits
    Compression mode : Lossy
    Stream size : 146 MiB (10%)
    Alignment : Split accross interleaves
    Interleave, duration : 40 ms (1.00 video frame)
    Interleave, preload duration : 500 ms
    Скачать .torrent

    Скачать торрент-файл бесплатно и на максимальной скорости!

    Как скачивать? · Что такое торрент? · Рейтинг и ограничения

    !ВНИМАНИЕ!
    Сайт не распространяет и не хранит электронные версии произведений, а занимается лишь лишь предоставлением доступа к создаваемому пользователями каталогу ссылок на торрент-файлы, которые содержат только списки хеш-сумм, убедительная просьба с жалобами обращаться напрямую к пользователю. Файлы для обмена на трекере предоставлены пользователями сайта, и администрация не несёт ответственности за их содержание. Просьба не заливать файлы, защищенные авторскими правами, а также файлы нелегального содержания!

    [Профиль] [ЛС]
    Показать сообщения:    
    Ответить на тему

    Текущее время: Сегодня, в 18:20

    Часовой пояс: GMT + 2



    Вы не можете начинать темы
    Вы не можете отвечать на сообщения
    Вы не можете редактировать свои сообщения
    Вы не можете удалять свои сообщения
    Вы не можете голосовать в опросах
    Вы не можете прикреплять файлы к сообщениям
    Вы не можете скачивать файлы