Register  ·  Log in
Forgot password?

  • Полночное разрешение / La permission de minuit (Дэльфин Глейз / Delphine Gleize) [2011 г., драма, DVDRip]

    Reply to topic
    Author Message


    Post 20-Feb-2013 12:44



    Полночное разрешение / La permission de minuit-Год выпуска: 2011
    Страна: Франция
    Жанр: драма
    Продолжительность: 01:46:26
    Перевод: Любительский (одноголосый, закадровый)
    Субтитры: нет
    Режиссер: Дэльфин Глейз / Delphine Gleize

    В ролях: Венсан Линдон, Эммануэль Дево, Quentin Challal, Кэролайн Пруст, Натали Бутефо, Лорен Капеллуто, Солен Риго, Максим Ренард, Alexandre Boucher, Noémie Dujardin, Доминик Байенс, Tiana Salles
    Описание: 13-летний Ромен болен редкой генетической болезнью, из-за которой он не может появляться на солнечном свете. 50-летний Давид профессор дерматологии, который присматривал и ухаживал за ним с двухлетнего возраста. За эти годы они сильно привязались друг к другу, и между ними возникла необычная дружба, но теперь Давида ожидает перевод в другое заведение и неизбежное расставание со своим пациентом и близким другом, к которому тот совершенно не готов.
    Качество: DVDRip
    Формат: AVI
    Видео кодек: XviD
    Аудио кодек: AC3
    Видео: XviD, 720x304 (2.35:1), 1637 kbps, 25 fps, 0,299 bpp
    Аудио: AC3 / 2.0 / 48 kHz / 192 kbps / 16 bit



    Complete name : F:\LaPermissionDeMinuit_2011_1400t.avi
    Format : AVI
    Format/Info : Audio Video Interleave
    File size : 1.37 GiB
    Duration : 1h 46mn
    Overall bit rate : 1 840 Kbps
    Writing application : VirtualDubMod (build 2540/release)
    Writing library : VirtualDubMod build 2540/release
    ID : 0
    Format : MPEG-4 Visual
    Format profile : Advanced Simple@L5
    Format settings, BVOP : 2
    Format settings, QPel : No
    Format settings, GMC : No warppoints
    Format settings, Matrix : Default (MPEG)
    Codec ID : XVID
    Codec ID/Hint : XviD
    Duration : 1h 46mn
    Bit rate : 1 638 Kbps
    Width : 720 pixels
    Height : 304 pixels
    Display aspect ratio : 2.35:1
    Frame rate : 25.000 fps
    Color space : YUV
    Chroma subsampling : 4:2:0
    Bit depth : 8 bits
    Scan type : Progressive
    Compression mode : Lossy
    Bits/(Pixel*Frame) : 0.299
    Stream size : 1.22 GiB (89%)
    Writing library : XviD 1.2.1 (UTC 2008-12-04)
    ID : 1
    Format : AC-3
    Format/Info : Audio Coding 3
    Mode extension : CM (complete main)
    Codec ID : 2000
    Duration : 1h 46mn
    Bit rate mode : Constant
    Bit rate : 192 Kbps
    Channel(s) : 2 channels
    Channel positions : Front: L R
    Sampling rate : 48.0 KHz
    Bit depth : 16 bits
    Compression mode : Lossy
    Stream size : 146 MiB (10%)
    Alignment : Split accross interleaves
    Interleave, duration : 40 ms (1.00 video frame)
    Interleave, preload duration : 500 ms
    Download .torrent

    Download free and at maximum speed!

    How to Download? · What is a torrent? · Ratings and Limitations

    The site does not extend and does not store electronic(digital) versions of products, and only gives access to a reference catalogue created by users on torrent-files which contain only lists of the hash-sums, the earnest entreaty, with complaints(abuse) to access directly to the user. Files for an exchange on tracker are given by users of a site, and the administration does not bear the responsibility for their maintenance. The request to not fill in the files protected by copyrights, and also files of the illegal maintenance!

    [Profile] [PM]
    Display posts from previous:    
    Reply to topic

    The time now is: Today 06:01

    All times are GMT + 3 Hours

    You cannot post new topics in this forum
    You cannot reply to topics in this forum
    You cannot edit your posts in this forum
    You cannot delete your posts in this forum
    You cannot vote in polls in this forum
    You cannot attach files in this forum
    You cannot download files in this forum