BitTorrentTracker PerecTracker.org
BitTorrentTracker PerecTracker.org
    
Регистрация  ·  Вход
 
 · 
Забыли пароль?

  • Тили-тили-тесто / Серии: 1-4 из 4 (Петр Степин) [2014, Мелодрама, HDTV 1080i]

    Ответить на тему
     
    Автор Сообщение

    Columb

    Создавать темы 30-Ноя-2014 15:04

           

    [Цитировать]

    Тили-тили-тесто
    Год выпуска: 2014
    Производство: © ЗАО "Медиапрофсоюз"
    Жанр: Мелодрама
    Продолжительность: ~00:45:00
    Субтитры: нет
    Режиссёр: Петр Степин
    В ролях: Юлия Проскурякова, Анатолий Руденко, Максим Житник, Светлана Тимофеева-Летуновская, Валерий Зеленский (II), Ольга Бурлакова, Владимир Румянцев, Анастасия Фоминова, Максим Казаков, Евгений Кушпель, Полина Стефанович
    Описание: Людмила живет в небольшом поселке, она – почтальон и… местная сваха. Разъезжая по окрестным станицам на почтовой «буханке», Людмила подыскивает подходящих женихов своим подружкам и знакомым. С легкой руки Людмилы в станице играют одну свадьбу за другой. Только сама Людмила до сих пор одна. В Людмилу влюблен фермер Иван, но Людмила не может ответить ему взаимностью, так как уже несколько лет хранит верность своему погибшему жениху. Иван не теряет надежды заслужить расположение Людмилы.

    Качество: HDTV 1080i
    Формат: TS
    Видео кодек: H.264
    Аудио кодек: MP2
    Видео: MPEG4 Video (H264) 1920x1080, ~ 7938 Кбит/сек, 25.00fps 0.153 bit/pixel
    Аудио: MP2, 2 канала, 48,0 КГц, ~256 kbps
    Сторонней рекламы нет!

    MediaInfo

    ОбщееИдентификатор : 1 (0x1)Полное имя : F:\Фильмы торренты\Tili.tili.testo.2014.HDTV.(1080i).MediaClub\Tili.tili.testo.(01.seriya.iz.02).2014.HDTV.(1080i).MediaClub.tsФормат : MPEG-TSРазмер файла : 5,54 ГбайтПродолжительность : 1 ч. 32 м.Режим общего битрейта : ПеременныйОбщий поток : 8621 Кбит/сек
    ВидеоИдентификатор : 1000 (0x3E8)Идентификатор меню : 1 (0x1)Формат : AVCФормат/Информация : Advanced Video CodecПрофиль формата : High@L4.0Параметр CABAC формата : ДаПараметр ReFrames формата : 4 кадраИдентификатор кодека : 27Продолжительность : 1 ч. 32 м.Битрейт : 7937 Кбит/секШирина : 1920 пикселейВысота : 1080 пикселейСоотношение сторон : 16:9Частота кадров : 25,000 кадров/секЦветовое пространство : YUVСубдискретизация насыщенности : 4:2:0Битовая глубина : 8 битТип развёртки : MBAFFБит/(Пиксели*Кадры) : 0.153Размер потока : 5,10 Гбайт (92%)
    АудиоИдентификатор : 1101 (0x44D)Идентификатор меню : 1 (0x1)Формат : MPEG AudioВерсия формата : Version 1Профиль формата : Layer 2Идентификатор кодека : 3Продолжительность : 1 ч. 32 м.Вид битрейта : ПостоянныйБитрейт : 256 Кбит/секКаналы : 2 каналаЧастота : 48,0 КГцМетод сжатия : С потерямиРазмер потока : 169 Мбайт (3%)Язык : English
    Раздача группы:
    Отдельное спасибо nikolspup за предоставление материала.

    Внимание ! Раздача ведётся путём добавления новых серий

    Внимание! Раздача ведётся путём добавления новых серий; при каждом добавлении создётся новый торрент. Чтобы начать докачку новой серии, пользователям необходимо сделать следующее:
    (1) остановить скачивание,
    (2) удалить старый торрент у себя из клиента (старые серии удалять не надо),
    (3) скачать новый торрент и запустить его у себя в клиенте вместо старого, при этом указать клиенту путь в старую папку куда и должно происходить скачивание новых серий.
    Ваш клиент при этом должен произвести хеширование (проверку) старой папки (если не производит сам - помогите ему сделать это), и будет докачивать только те серии которых у вас ещё нет. Старые серии при этом не удаляются, а продолжают раздаваться!
    Eсли вы уже удалили старые серии, то предотвратить повторную закачку старых серий можно, отжав галочку в соответсвующих местах при запуске нового торрента. По возможности, желательно не удалять старые серии как можно дольше чтобы релизёр не столько продолжал раздавать старые серии, а смог сконцентрироваться на новых.
    ВНИМАНИЕ! ТОРРЕНТ ПЕРЕЗАЛИТ! ДОБАВЛЕНА 4-ая СЕРИИ!

    Скриншоты

    Скачать .torrent

    Скачать торрент-файл бесплатно и на максимальной скорости!

    Как скачивать? · Что такое торрент? · Рейтинг и ограничения

    !ВНИМАНИЕ!
    Сайт не распространяет и не хранит электронные версии произведений, а занимается лишь лишь предоставлением доступа к создаваемому пользователями каталогу ссылок на торрент-файлы, которые содержат только списки хеш-сумм, убедительная просьба с жалобами обращаться напрямую к пользователю. Файлы для обмена на трекере предоставлены пользователями сайта, и администрация не несёт ответственности за их содержание. Просьба не заливать файлы, защищенные авторскими правами, а также файлы нелегального содержания!

    [Профиль] [ЛС]
    Показать сообщения:    
    Ответить на тему

    Текущее время: Сегодня, в 08:58

    Часовой пояс: GMT + 2



    Вы не можете начинать темы
    Вы не можете отвечать на сообщения
    Вы не можете редактировать свои сообщения
    Вы не можете удалять свои сообщения
    Вы не можете голосовать в опросах
    Вы не можете прикреплять файлы к сообщениям
    Вы не можете скачивать файлы