BitTorrentTracker PerecTracker.org
BitTorrentTracker PerecTracker.org
    
Регистрация  ·  Вход
 
 · 
Забыли пароль?

  • Космический крейсер Ямато (ТВ-1) / Космический линкор Ямато / Uchuu Senkan Yamato / Space Cruiser Yamato / Space Battleship Yamato [TV] [26 из 26] [Без хардсаба] [RUS(int)+JAP+SUB] [1974 г., приключения, фантастика, драма, BDRip] [720p]

    Ответить на тему
     
    Автор Сообщение

    Columb

    Создавать темы 30-Ноя-2014 14:15

           

    [Цитировать]

    Космический крейсер Ямато [ТВ-1] / Космический линкор Ямато
    Uchuu Senkan Yamato / Space Cruiser Yamato / Space Battleship Yamato / 宇宙戦艦ヤマト
    Страна: Япония
    Год выпуска: 1974 г.
    Жанр: приключения, фантастика, драма
    Продолжительность: 26 эп. × 25 мин.
    Режиссер: Мацумото Лэйдзи / Matsumoto Leiji / 松本零士
    Озвучка: одноголосая, loster01 (муж)
    Сэмпл: тык
    Субтитры: русские, полные
    Хардсаб: нет
    Перевод на русский: Targon
    Описание: В далеком будущем война между людьми и гамилусианами опустошила Землю. Постоянно падающие радиоактивные астероиды превратили атмосферу планеты в непригодную для жилья. Старсия, королева планеты Искандар, предложила людям помощь – устройство, способное очистить Землю от радиации. Получить это устройство и спасти свою планету должен экипаж космического крейсера Ямато. Как и во Вторую мировую его тезка совершил подвиг, сейчас линкор Ямато должен совершить невозможное: преодолеть 148 тысяч световых лет до планеты Искандар и вернуться обратно. Если команда Ямато не справится с этой задачей, то через один земной год весь людской род погибнет.
    Качество: BDRip [by LE-Production]
    Видео кодек: H264 [8bit]
    Аудио кодек: AC3
    Тип релиза: Без хардсаба
    Формат видео: MKV
    Наличие линковки: Нет
    Релиз/Автор рипа: loster01
    Видео: 960 x 720 (4:3) at 23.976 fps, AVC (x264), High@L3.1, 2500 Kbps avg, 0.151 bit/pixel, 8 bit
    Аудио #1: RUS(int) 48 kHz, AC3, 2 ch, ~192 kbps
    Аудио #2: JAP 48 kHz, AC3, 2 ch, ~192 kbps
    Релиз от:

    Подробные тех. данные

    Формат : MatroskaРазмер файла : 518 МбайтПродолжительность : 25 м.Общий поток : 2886 Кбит/секНазвание фильма : LE-ProductionДата кодирования : UTC 2014-11-14 11:43:55Программа кодирования : mkvmerge v7.3.0 ('Nouages') 64bit built on Oct 22 2014 18:53:34Библиотека кодирования : libebml v1.3.0 + libmatroska v1.4.1
    ВидеоИдентификатор : 1Формат : AVCФормат/Информация : Advanced Video CodecПрофиль формата : High@L3.1Параметр CABAC формата : ДаПараметр ReFrames формата : 4 кадрыИдентификатор кодека : V_MPEG4/ISO/AVCПродолжительность : 25 м.Битрейт : 2500 Кбит/секШирина : 960 пикс.Высота : 720 пикс.Соотношение сторон : 4:3Частота кадров : 23,976 кадр/секЦветовое пространство : YUVПодвыборка цветности : 4:2:0Битовая глубина : 8 битТип развёртки : ПрогрессивнаяБит/(Пиксели*Кадры) : 0.151Размер потока : 439 Мбайт (85%)Заголовок : LE-ProductionБиблиотека кодирования : x264 core 130 r2273 b3065e6Настройки программы : cabac=1 / ref=1 / deblock=1:-1:-1 / analyse=0x3:0x113 / me=hex / subme=2 / psy=1 / psy_rd=1.00:0.10 / mixed_ref=0 / me_range=16 / chroma_me=1 / trellis=0 / 8x8dct=1 / cqm=0 / deadzone=21,11 / fast_pskip=1 / chroma_qp_offset=0 / threads=12 / lookahead_threads=4 / sliced_threads=0 / nr=0 / decimate=1 / interlaced=0 / bluray_compat=0 / constrained_intra=0 / bframes=3 / b_pyramid=2 / b_adapt=1 / b_bias=0 / direct=3 / weightb=1 / open_gop=0 / weightp=1 / keyint=250 / keyint_min=23 / scenecut=40 / intra_refresh=0 / rc_lookahead=10 / rc=2pass / mbtree=1 / bitrate=2500 / ratetol=1.0 / qcomp=0.60 / qpmin=0 / qpmax=69 / qpstep=4 / cplxblur=20.0 / qblur=0.5 / ip_ratio=1.40 / aq=1:1.00Язык : Japanese
    Аудио #1Идентификатор : 2Формат : AC-3Формат/Информация : Audio Coding 3Расширение режима : CM (complete main)Идентификатор кодека : A_AC3Продолжительность : 25 м.Вид битрейта : ПостоянныйБитрейт : 192 Кбит/секКанал(ы) : 2 канала(ов)Расположение каналов : Front: L RЧастота : 48,0 КГцБитовая глубина : 16 битМетод сжатия : С потерямиРазмер потока : 34,5 Мбайт (7%)Заголовок : loster01 (LE-Production)Язык : Russian
    Аудио #2Идентификатор : 3Формат : AC-3Формат/Информация : Audio Coding 3Расширение режима : CM (complete main)Идентификатор кодека : A_AC3Продолжительность : 25 м.Вид битрейта : ПостоянныйБитрейт : 192 Кбит/секКанал(ы) : 2 канала(ов)Расположение каналов : Front: L RЧастота : 48,0 КГцБитовая глубина : 16 битМетод сжатия : С потерямиРазмер потока : 34,5 Мбайт (7%)Язык : Japanese
    ТекстИдентификатор : 4Формат : UTF-8Идентификатор кодека : S_TEXT/UTF8Идентификатор кодека/Информация : UTF-8 Plain TextЗаголовок : TargonЯзык : Russian

    Список эпизодов

    01. SOS Earth! Revive Battleship Yamato!
    02. The opening gun! Space Battleship Argo starts!
    03. Argo, take off! The Challenge of 296,000 Light-Years!
    04. World of Wonder! Argo leaps past light!
    05. Escape the Floating Continent! Crisis calls the Wave Motion Gun!
    06. Space Destroyer Yukikaze Sleeps in the Icefield!
    07. Argo Sinks! Fateful Battle to Destroy the Enemy Stronghold!
    08. Argo Braves Death! Destroy the Reflection Satellite Gun!
    09. Revolving Defense! Asteriod Belt!
    10. Farewell, solar system! From the galaxy, with love!
    11. Resolution! Break through the Gamilons absolute defense line!
    12. Certain death! The wishing star of Orion, hell-star!
    13. Hurry, Argo! Earth is suffering!
    14. The galaxys ordeal! The year 2200 advances!
    15. Desperate escape! The galaxys different dimension!
    16. Planet Beeland, underground prison of condemned criminals!
    17. Charge! Balanosaurus special attack group!
    18. Floating fortress island! Two men brave death!
    19. Homesickness of space! My mothers tears are my tears!
    20. The day planet Balans sun dropped!
    21. Desperate Challenge from Lysis fleet!
    22. Decisive battle! Fight for honor at the rainbow star group!
    23. Finally arrived! Crest of the Magellanic Clouds wave!
    24. Death struggle! God, weep for the Gamilons!
    25. Iscandar! A dying planet of love!
    26. Earth! Argo returns!

    Скриншоты


    Скачать .torrent

    Скачать торрент-файл бесплатно и на максимальной скорости!

    Как скачивать? · Что такое торрент? · Рейтинг и ограничения

    !ВНИМАНИЕ!
    Сайт не распространяет и не хранит электронные версии произведений, а занимается лишь лишь предоставлением доступа к создаваемому пользователями каталогу ссылок на торрент-файлы, которые содержат только списки хеш-сумм, убедительная просьба с жалобами обращаться напрямую к пользователю. Файлы для обмена на трекере предоставлены пользователями сайта, и администрация не несёт ответственности за их содержание. Просьба не заливать файлы, защищенные авторскими правами, а также файлы нелегального содержания!

    [Профиль] [ЛС]
    Показать сообщения:    
    Ответить на тему

    Текущее время: Сегодня, в 12:17

    Часовой пояс: GMT + 2



    Вы не можете начинать темы
    Вы не можете отвечать на сообщения
    Вы не можете редактировать свои сообщения
    Вы не можете удалять свои сообщения
    Вы не можете голосовать в опросах
    Вы не можете прикреплять файлы к сообщениям
    Вы не можете скачивать файлы