BitTorrentTracker PerecTracker.org
BitTorrentTracker PerecTracker.org
    
Регистрация  ·  Вход
 
 · 
Забыли пароль?

  • Олег Макин - В программе "К нам приехал" (14.02.2013 г.) [2013 г., Chanson, DVDRip]

    Ответить на тему
     
    Автор Сообщение

    Columb

    Создавать темы 20-Фев-2013 10:20

           

    [Цитировать]

    Олег Макин
    В программе "К нам приехал" (14.02.2013 г.)
    -Страна: Россия
    Жанр: Chanson
    Продолжительность: 00:58:50
    Год выпуска: 2013 г.-Новый сезон популярной программы Первого российского круглосуточного телеканала
    душевных песен "Ля-Минор".
    Гость программы - Олег Макин
    Эфир от 14-го февраля 2013 г.
    Треклист:
    1. Осень
    2. Твое Величество Женщина
    3. Гвардии майор
    4. Над Вяткой над рекой
    5. Я стираю память о тебе
    6. Под перестук колес
    7. Капали слёзы
    8. Россия - наша Родина-Источник: собственный рип
    Качество: DVDRip
    Контейнер: MOV
    Видео кодек: MPEG4
    Аудио кодек: MP4
    Видео: 720x576 @ 4:3, 2 564 Kbps, 25.000 fps
    Аудио: AAC, 2 ch, 48.0 KHz, 320 kbps

    MediaInfo

    C:\Documents and Settings\Polzovatel\Мои документы\Мои рисунки\2013-02-14 - Олег Макин.mov
    General
    Complete name : C:\Documents and Settings\2013-02-14 - Олег Макин.mov
    Format : MPEG-4
    Format profile : QuickTime
    Codec ID : qt
    File size : 1.18 GiB
    Duration : 58mn 50s
    Overall bit rate : 2 882 Kbps
    Encoded date : UTC 2013-02-16 20:44:30
    Tagged date : UTC 2013-02-16 21:11:15
    Writing library : Apple QuickTime
    com.apple.finalcutstudio.media.uuid : CCD30BF0-E9F2-4FE2-9C31-0A01AF956D62
    Video #1
    ID : 1
    Format : AVC
    Format/Info : Advanced Video Codec
    Format profile : Main@L3.0
    Format settings, CABAC : No
    Format settings, ReFrames : 2 frames
    Codec ID : avc1
    Codec ID/Info : Advanced Video Coding
    Duration : 58mn 50s
    Bit rate mode : Variable
    Bit rate : 2 561 Kbps
    Width : 720 pixels
    Height : 576 pixels
    Display aspect ratio : 4:3
    Original display aspect ratio : 5:4
    Frame rate mode : Constant
    Frame rate : 25.000 fps
    Standard : PAL
    Resolution : 24 bits
    Colorimetry : 4:2:0
    Scan type : Progressive
    Bits/(Pixel*Frame) : 0.247
    Stream size : 1.05 GiB (89%)
    Title : Ћбработчик видео Apple
    Encoded date : UTC 2013-02-16 20:44:31
    Tagged date : UTC 2013-02-16 21:11:15
    colour_primaries : BT.601-6 525, BT.1358 525, BT.1700 NTSC, SMPTE 170M
    transfer_characteristics : BT.709-5, BT.1361
    matrix_coefficients : BT.601-6 525, BT.1358 525, BT.1700 NTSC, SMPTE 170M
    Audio #2
    ID : 2
    Format : AAC
    Format/Info : Advanced Audio Codec
    Format version : Version 4
    Format profile : LC
    Format settings, SBR : No
    Codec ID : 40
    Duration : 58mn 50s
    Bit rate mode : Constant
    Bit rate : 316 Kbps
    Nominal bit rate : 320 Kbps
    Channel(s) : 2 channels
    Channel positions : L R
    Sampling rate : 48.0 KHz
    Resolution : 16 bits
    Stream size : 133 MiB (11%)
    Title : Ћбработчик звука Apple
    Encoded date : UTC 2013-02-16 20:44:32
    Tagged date : UTC 2013-02-16 21:11:15
    -

    Скриншоты




    Скачать .torrent

    Скачать торрент-файл бесплатно и на максимальной скорости!

    Как скачивать? · Что такое торрент? · Рейтинг и ограничения

    !ВНИМАНИЕ!
    Сайт не распространяет и не хранит электронные версии произведений, а занимается лишь лишь предоставлением доступа к создаваемому пользователями каталогу ссылок на торрент-файлы, которые содержат только списки хеш-сумм, убедительная просьба с жалобами обращаться напрямую к пользователю. Файлы для обмена на трекере предоставлены пользователями сайта, и администрация не несёт ответственности за их содержание. Просьба не заливать файлы, защищенные авторскими правами, а также файлы нелегального содержания!

    [Профиль] [ЛС]
    Показать сообщения:    
    Ответить на тему

    Текущее время: Сегодня, в 11:46

    Часовой пояс: GMT + 2



    Вы не можете начинать темы
    Вы не можете отвечать на сообщения
    Вы не можете редактировать свои сообщения
    Вы не можете удалять свои сообщения
    Вы не можете голосовать в опросах
    Вы не можете прикреплять файлы к сообщениям
    Вы не можете скачивать файлы