BitTorrentTracker PerecTracker.org
BitTorrentTracker PerecTracker.org
    
Регистрация  ·  Вход
 
 · 
Забыли пароль?

  • Осечка / Misfire (Р. Эллис Фрэзиер/ R. Ellis Frazier) [2014, США, Боевик, Криминал, HDRip] VO

    Ответить на тему
     
    Автор Сообщение

    Columb

    Создавать темы 30-Ноя-2014 14:01

           

    [Цитировать]

    Осечка / Misfire
    Страна: США
    Жанр: Боевик, Криминал
    Год выпуска: 2014
    Продолжительность: 01:28:51
    Перевод: Одноголосый закадровый
    Cубтитры: нет
    Режиссер: Р. Эллис Фрэзиер/ R. Ellis Frazier
    В ролях: Гэри Дэниелс , Ваннесса Васкес, Майкл Греко, Луис Гатика, Джеффри Росс, Дэвид Фернандез, Джастин Несбитт, Энтони Дж. Рикерт-Эпстин, Фабиан Лопес
    Описание: Журналистка берется за опасное дело: она хочет сделать громкий материал о мафии, занимающейся торговлей наркотиками. В ходе журналистского расследования ее похищают. Об этом узнает ее бывший муж, который работает на спецслужбы. Он берется спасти бывшую жену. В одиночку он начинает настоящую охоту на преступников. Несмотря на смертельную опасность он идет до конца...
    Сэмпл: http://multi-up.com/1015965
    Качество видео: HDRip
    Формат видео: AVI
    Видео: Xvid 640x272 23.976fps 962kbps
    Аудио: Dolby AC3 48000Hz stereo 192kbps

    MediaInfo

    General
    Complete name : D:\µTorrent\Misfire.2014.Xixidok.avi
    Format : AVI
    Format/Info : Audio Video Interleave
    File size : 740 MiB
    Duration : 1h 28mn
    Overall bit rate : 1 164 Kbps
    Writing application : VirtualDubMod 1.5.10.3 (build 2550/release)
    Writing library : VirtualDubMod build 2550/release
    Video
    ID : 0
    Format : MPEG-4 Visual
    Format profile : Advanced Simple@L5
    Format settings, BVOP : 2
    Format settings, QPel : No
    Format settings, GMC : No warppoints
    Format settings, Matrix : Default (H.263)
    Muxing mode : Packed bitstream
    Codec ID : XVID
    Codec ID/Hint : XviD
    Duration : 1h 28mn
    Bit rate : 962 Kbps
    Width : 640 pixels
    Height : 272 pixels
    Display aspect ratio : 2.35:1
    Frame rate : 23.976 fps
    Color space : YUV
    Chroma subsampling : 4:2:0
    Bit depth : 8 bits
    Scan type : Progressive
    Compression mode : Lossy
    Bits/(Pixel*Frame) : 0.231
    Stream size : 612 MiB (83%)
    Writing library : XviD 65
    Audio
    ID : 1
    Format : AC-3
    Format/Info : Audio Coding 3
    Mode extension : CM (complete main)
    Codec ID : 2000
    Duration : 1h 28mn
    Bit rate mode : Constant
    Bit rate : 192 Kbps
    Channel(s) : 2 channels
    Channel positions : Front: L R
    Sampling rate : 48.0 KHz
    Bit depth : 16 bits
    Compression mode : Lossy
    Stream size : 122 MiB (16%)
    Alignment : Split accross interleaves
    Interleave, duration : 42 ms (1.00 video frame)
    Interleave, preload duration : 500 ms

    Скриншот c названием фильма

    Скриншоты

    Релиз

    Озвучка / Автор перевода: Васька Куролесов по субтитрам Хихидок
    Скачать .torrent

    Скачать торрент-файл бесплатно и на максимальной скорости!

    Как скачивать? · Что такое торрент? · Рейтинг и ограничения

    !ВНИМАНИЕ!
    Сайт не распространяет и не хранит электронные версии произведений, а занимается лишь лишь предоставлением доступа к создаваемому пользователями каталогу ссылок на торрент-файлы, которые содержат только списки хеш-сумм, убедительная просьба с жалобами обращаться напрямую к пользователю. Файлы для обмена на трекере предоставлены пользователями сайта, и администрация не несёт ответственности за их содержание. Просьба не заливать файлы, защищенные авторскими правами, а также файлы нелегального содержания!

    [Профиль] [ЛС]
    Показать сообщения:    
    Ответить на тему

    Текущее время: Сегодня, в 02:20

    Часовой пояс: GMT + 2



    Вы не можете начинать темы
    Вы не можете отвечать на сообщения
    Вы не можете редактировать свои сообщения
    Вы не можете удалять свои сообщения
    Вы не можете голосовать в опросах
    Вы не можете прикреплять файлы к сообщениям
    Вы не можете скачивать файлы