Register  ·  Log in
Forgot password?

  • Осечка / Misfire (Р. Эллис Фрэзиер/ R. Ellis Frazier) [2014, США, Боевик, Криминал, HDRip] VO

    Reply to topic
    Author Message


    Post 30-Nov-2014 15:01



    Осечка / Misfire
    Страна: США
    Жанр: Боевик, Криминал
    Год выпуска: 2014
    Продолжительность: 01:28:51
    Перевод: Одноголосый закадровый
    Cубтитры: нет
    Режиссер: Р. Эллис Фрэзиер/ R. Ellis Frazier
    В ролях: Гэри Дэниелс , Ваннесса Васкес, Майкл Греко, Луис Гатика, Джеффри Росс, Дэвид Фернандез, Джастин Несбитт, Энтони Дж. Рикерт-Эпстин, Фабиан Лопес
    Описание: Журналистка берется за опасное дело: она хочет сделать громкий материал о мафии, занимающейся торговлей наркотиками. В ходе журналистского расследования ее похищают. Об этом узнает ее бывший муж, который работает на спецслужбы. Он берется спасти бывшую жену. В одиночку он начинает настоящую охоту на преступников. Несмотря на смертельную опасность он идет до конца...
    Качество видео: HDRip
    Формат видео: AVI
    Видео: Xvid 640x272 23.976fps 962kbps
    Аудио: Dolby AC3 48000Hz stereo 192kbps


    Complete name : D:\µTorrent\Misfire.2014.Xixidok.avi
    Format : AVI
    Format/Info : Audio Video Interleave
    File size : 740 MiB
    Duration : 1h 28mn
    Overall bit rate : 1 164 Kbps
    Writing application : VirtualDubMod (build 2550/release)
    Writing library : VirtualDubMod build 2550/release
    ID : 0
    Format : MPEG-4 Visual
    Format profile : Advanced Simple@L5
    Format settings, BVOP : 2
    Format settings, QPel : No
    Format settings, GMC : No warppoints
    Format settings, Matrix : Default (H.263)
    Muxing mode : Packed bitstream
    Codec ID : XVID
    Codec ID/Hint : XviD
    Duration : 1h 28mn
    Bit rate : 962 Kbps
    Width : 640 pixels
    Height : 272 pixels
    Display aspect ratio : 2.35:1
    Frame rate : 23.976 fps
    Color space : YUV
    Chroma subsampling : 4:2:0
    Bit depth : 8 bits
    Scan type : Progressive
    Compression mode : Lossy
    Bits/(Pixel*Frame) : 0.231
    Stream size : 612 MiB (83%)
    Writing library : XviD 65
    ID : 1
    Format : AC-3
    Format/Info : Audio Coding 3
    Mode extension : CM (complete main)
    Codec ID : 2000
    Duration : 1h 28mn
    Bit rate mode : Constant
    Bit rate : 192 Kbps
    Channel(s) : 2 channels
    Channel positions : Front: L R
    Sampling rate : 48.0 KHz
    Bit depth : 16 bits
    Compression mode : Lossy
    Stream size : 122 MiB (16%)
    Alignment : Split accross interleaves
    Interleave, duration : 42 ms (1.00 video frame)
    Interleave, preload duration : 500 ms

    Скриншот c названием фильма



    Озвучка / Автор перевода: Васька Куролесов по субтитрам Хихидок
    Download .torrent

    Download free and at maximum speed!

    How to Download? · What is a torrent? · Ratings and Limitations

    The site does not extend and does not store electronic(digital) versions of products, and only gives access to a reference catalogue created by users on torrent-files which contain only lists of the hash-sums, the earnest entreaty, with complaints(abuse) to access directly to the user. Files for an exchange on tracker are given by users of a site, and the administration does not bear the responsibility for their maintenance. The request to not fill in the files protected by copyrights, and also files of the illegal maintenance!

    [Profile] [PM]
    Display posts from previous:    
    Reply to topic

    The time now is: Today 22:50

    All times are GMT + 3 Hours

    You cannot post new topics in this forum
    You cannot reply to topics in this forum
    You cannot edit your posts in this forum
    You cannot delete your posts in this forum
    You cannot vote in polls in this forum
    You cannot attach files in this forum
    You cannot download files in this forum