BitTorrentTracker PerecTracker.org
BitTorrentTracker PerecTracker.org
    
Регистрация  ·  Вход
 
 · 
Забыли пароль?

  • Нанятые для убийства / Hired to Kill (Нико Масторакис / Nico Mastorakis) [1990 г., боевик, VHSRip]

    Ответить на тему
     
    Автор Сообщение

    Columb

    Создавать темы 20-Фев-2013 10:07

           

    [Цитировать]

    Нанятые для убийства / Hired to Kill-Год выпуска: 1990
    Страна: США
    Жанр: боевик
    Продолжительность: 01:33:14
    Перевод: Профессиональный (полное дублирование)
    Субтитры: нет
    Режиссер: Нико Масторакис / Nico Mastorakis


    В ролях: Брайан Томпсон, Оливер Рид, Джордж Кеннеди, Хосе Феррер, Мишель Моффетт, Барбара Нивен, Джордана Капра, Кендалл Конрад, Ким Лонсдэйл
    Описание: Убийце-профессионалу Фрэнку Райену для выполнения чрезвычайно важного и опасного задания необходимо проникнуть в некое государство Сайпра известное в мире своим кровавым тоталитарно-диктаторским режимом и зверствующей контрразведкой. Сочиняется шикарная легенда — и Райен становится молодым талантливым художником-модельером Сесилом Торнтоном который вместе со своей труппой манекенщиц приезжает в Сайпру для демонстрации новой коллекции одежды.
    Качество: VHSRip
    Формат: AVI
    Видео кодек: DivX
    Аудио кодек: MP3
    Видео: 688x512 (1.34:1), 25 fps, DivX Codec 6.8.3 ~1901 kbps avg, 0.22 bit/pixel
    Аудио: 44.100 kHz, MPEG Layer 3, 2 ch, ~128.00 kbps avg

    MediaInfo

    Общее
    Полное имя : C:\фильмы\Paris-Manhattan 2012\Hired to Kill\Nanjatie.dlja.ubiystva.1990.DivX.VHSRip.avi
    Формат : AVI
    Формат/Информация : Audio Video Interleave
    Размер файла : 1,33 Гбайт
    Продолжительность : 1 ч. 33 м.
    Общий поток : 2039 Кбит/сек
    Программа кодирования : VirtualDubMod 1.5.10.2 (build 2540/release)
    Библиотека кодирования : VirtualDubMod build 2540/release
    Видео
    Идентификатор : 0
    Формат : MPEG-4 Visual
    Параметр BVOP формата : 1
    Параметр QPel формата : Нет
    Параметр GMC формата : Без точки перехода
    Параметр матрицы формата : Default (H.263)
    Режим смешивания : Сжатый битовый поток
    Идентификатор кодека : DX50
    Идентификатор кодека/Подсказка : DivX 5
    Продолжительность : 1 ч. 33 м.
    Битрейт : 1902 Кбит/сек
    Ширина : 688 пикселей
    Высота : 512 пикселей
    Соотношение сторон : 4:3
    Частота кадров : 25,000 кадров/сек
    Цветовое пространство : YUV
    Субдискретизация насыщенности : 4:2:0
    Битовая глубина : 8 бит
    Тип развёртки : Прогрессивная
    Метод сжатия : С потерями
    Бит/(Пиксели*Кадры) : 0.216
    Размер потока : 1,24 Гбайт (93%)
    Библиотека кодирования : DivX 6.8.3-6.8.4 (UTC 2008-06-07)
    Аудио
    Идентификатор : 1
    Формат : MPEG Audio
    Версия формата : Version 1
    Профиль формата : Layer 3
    Режим : Joint stereo
    Расширение режима : MS Stereo
    Идентификатор кодека : 55
    Идентификатор кодека/Подсказка : MP3
    Продолжительность : 1 ч. 33 м.
    Вид битрейта : Постоянный
    Битрейт : 128 Кбит/сек
    Каналы : 2 канала
    Частота : 44,1 КГц
    Метод сжатия : С потерями
    Размер потока : 85,4 Мбайт (6%)
    Выравнивание : Разделение по промежуткам
    Продолжительность промежутка : 40 мс. (1,00 видеокадр)
    Время предзагрузки промежутка : 500 мс.

    Скриншоты




    Скачать .torrent

    Скачать торрент-файл бесплатно и на максимальной скорости!

    Как скачивать? · Что такое торрент? · Рейтинг и ограничения

    !ВНИМАНИЕ!
    Сайт не распространяет и не хранит электронные версии произведений, а занимается лишь лишь предоставлением доступа к создаваемому пользователями каталогу ссылок на торрент-файлы, которые содержат только списки хеш-сумм, убедительная просьба с жалобами обращаться напрямую к пользователю. Файлы для обмена на трекере предоставлены пользователями сайта, и администрация не несёт ответственности за их содержание. Просьба не заливать файлы, защищенные авторскими правами, а также файлы нелегального содержания!

    [Профиль] [ЛС]
    Показать сообщения:    
    Ответить на тему

    Текущее время: Сегодня, в 02:50

    Часовой пояс: GMT + 2



    Вы не можете начинать темы
    Вы не можете отвечать на сообщения
    Вы не можете редактировать свои сообщения
    Вы не можете удалять свои сообщения
    Вы не можете голосовать в опросах
    Вы не можете прикреплять файлы к сообщениям
    Вы не можете скачивать файлы