BitTorrentTracker PerecTracker.org
BitTorrentTracker PerecTracker.org
    
Регистрация  ·  Вход
 
 · 
Забыли пароль?

  • Настольный футбол / Волшебный футбол / Metegol (Хуан Хосе Кампанелла / Juan José Campanella) [2013, мультфильм, приключения, семейный, BDRip] Mvo

    Ответить на тему
     
    Автор Сообщение

    Columb

    Создавать темы 30-Ноя-2014 10:02

           

    [Цитировать]

    Настольный футбол / Волшебный футбол / Metegol«Гол в самое сердце»-Страна: Испания, Аргентина, Индия, США
    Жанр: мультфильм, приключения, семейный, спорт
    Год выпуска: 2013
    Продолжительность: 01:46:38
    Перевод: Профессиональный (многоголосый, закадровый) - AlexFilm
    Русские субтитры: Нет-Режиссер: Хуан Хосе Кампанелла / Juan José Campanella-Описание: История Амадео, застенчивого мальчика с добрым сердцем, и его друзей - отважных футболистов, с помощью которых Амадео должен вернуть себе честь, достоинство и настоящую любовь. Это фильм о дружбе, верности и страсти, действие которого разворачивается на футбольном поле.-Рейтинг:
    -Бюджет: $22 000 000
    Сборы в мире: $24 000 000 сборы
    Мировая премьера: 18 июля 2013--Семпл-Качество: BDRip [Metegol.2013.BDRemux.1080p.Rus.Esp.AlexFilm]
    Формат: AVI
    Видео: 656x272 (2.41:1), 23.976 fps, XviD build 65 ~840 kbps avg, 0.20 bit/pixel
    Аудио: 48 kHz, MPEG Layer 3, 2 ch, ~128.00 kbps avg
    Субтитры: Отсутствуют-

    MI

    Format : AVIFormat/Info : Audio Video InterleaveFile size : 746 MiBDuration : 1h 46mnOverall bit rate : 978 KbpsWriting application : VirtualDubMod 1.5.10.3 | www.virtualdub-fr.org || (build 2550/release)Writing library : VirtualDubMod build 2550/release
    VideoID : 0Format : MPEG-4 VisualFormat profile : Advanced Simple@L5Format settings, BVOP : 2Format settings, QPel : NoFormat settings, GMC : No warppointsFormat settings, Matrix : CustomCodec ID : XVIDCodec ID/Hint : XviDDuration : 1h 46mnBit rate : 840 KbpsWidth : 656 pixelsHeight : 272 pixelsDisplay aspect ratio : 2.40:1Frame rate : 23.976 fpsColor space : YUVChroma subsampling : 4:2:0Bit depth : 8 bitsScan type : ProgressiveCompression mode : LossyBits/(Pixel*Frame) : 0.196Stream size : 641 MiB (86%)Writing library : XviD 65
    AudioID : 1Format : MPEG AudioFormat version : Version 1Format profile : Layer 3Codec ID : 55Codec ID/Hint : MP3Duration : 1h 46mnBit rate mode : ConstantBit rate : 128 KbpsChannel(s) : 2 channelsSampling rate : 48.0 KHzCompression mode : LossyStream size : 97.6 MiB (13%)Alignment : Aligned on interleavesInterleave, duration : 42 ms (1.00 video frame)Interleave, preload duration : 504 msWriting library : LAME3.99rEncoding settings : -m s -V 4 -q 2 -lowpass 17 -b 128
    Скачать .torrent

    Скачать торрент-файл бесплатно и на максимальной скорости!

    Как скачивать? · Что такое торрент? · Рейтинг и ограничения

    !ВНИМАНИЕ!
    Сайт не распространяет и не хранит электронные версии произведений, а занимается лишь лишь предоставлением доступа к создаваемому пользователями каталогу ссылок на торрент-файлы, которые содержат только списки хеш-сумм, убедительная просьба с жалобами обращаться напрямую к пользователю. Файлы для обмена на трекере предоставлены пользователями сайта, и администрация не несёт ответственности за их содержание. Просьба не заливать файлы, защищенные авторскими правами, а также файлы нелегального содержания!

    [Профиль] [ЛС]
    Показать сообщения:    
    Ответить на тему

    Текущее время: Сегодня, в 07:14

    Часовой пояс: GMT + 2



    Вы не можете начинать темы
    Вы не можете отвечать на сообщения
    Вы не можете редактировать свои сообщения
    Вы не можете удалять свои сообщения
    Вы не можете голосовать в опросах
    Вы не можете прикреплять файлы к сообщениям
    Вы не можете скачивать файлы