Register  ·  Log in
Forgot password?

  • Настольный футбол / Волшебный футбол / Metegol (Хуан Хосе Кампанелла / Juan José Campanella) [2013, мультфильм, приключения, семейный, BDRip] Mvo

    Reply to topic
    Author Message


    Post 30-Nov-2014 11:02



    Настольный футбол / Волшебный футбол / Metegol«Гол в самое сердце»-Страна: Испания, Аргентина, Индия, США
    Жанр: мультфильм, приключения, семейный, спорт
    Год выпуска: 2013
    Продолжительность: 01:46:38
    Перевод: Профессиональный (многоголосый, закадровый) - AlexFilm
    Русские субтитры: Нет-Режиссер: Хуан Хосе Кампанелла / Juan José Campanella-Описание: История Амадео, застенчивого мальчика с добрым сердцем, и его друзей - отважных футболистов, с помощью которых Амадео должен вернуть себе честь, достоинство и настоящую любовь. Это фильм о дружбе, верности и страсти, действие которого разворачивается на футбольном поле.-Рейтинг:
    -Бюджет: $22 000 000
    Сборы в мире: $24 000 000 сборы
    Мировая премьера: 18 июля 2013--Семпл-Качество: BDRip [Metegol.2013.BDRemux.1080p.Rus.Esp.AlexFilm]
    Формат: AVI
    Видео: 656x272 (2.41:1), 23.976 fps, XviD build 65 ~840 kbps avg, 0.20 bit/pixel
    Аудио: 48 kHz, MPEG Layer 3, 2 ch, ~128.00 kbps avg
    Субтитры: Отсутствуют-


    Format : AVIFormat/Info : Audio Video InterleaveFile size : 746 MiBDuration : 1h 46mnOverall bit rate : 978 KbpsWriting application : VirtualDubMod | || (build 2550/release)Writing library : VirtualDubMod build 2550/release
    VideoID : 0Format : MPEG-4 VisualFormat profile : Advanced Simple@L5Format settings, BVOP : 2Format settings, QPel : NoFormat settings, GMC : No warppointsFormat settings, Matrix : CustomCodec ID : XVIDCodec ID/Hint : XviDDuration : 1h 46mnBit rate : 840 KbpsWidth : 656 pixelsHeight : 272 pixelsDisplay aspect ratio : 2.40:1Frame rate : 23.976 fpsColor space : YUVChroma subsampling : 4:2:0Bit depth : 8 bitsScan type : ProgressiveCompression mode : LossyBits/(Pixel*Frame) : 0.196Stream size : 641 MiB (86%)Writing library : XviD 65
    AudioID : 1Format : MPEG AudioFormat version : Version 1Format profile : Layer 3Codec ID : 55Codec ID/Hint : MP3Duration : 1h 46mnBit rate mode : ConstantBit rate : 128 KbpsChannel(s) : 2 channelsSampling rate : 48.0 KHzCompression mode : LossyStream size : 97.6 MiB (13%)Alignment : Aligned on interleavesInterleave, duration : 42 ms (1.00 video frame)Interleave, preload duration : 504 msWriting library : LAME3.99rEncoding settings : -m s -V 4 -q 2 -lowpass 17 -b 128
    Download .torrent

    Download free and at maximum speed!

    How to Download? · What is a torrent? · Ratings and Limitations

    The site does not extend and does not store electronic(digital) versions of products, and only gives access to a reference catalogue created by users on torrent-files which contain only lists of the hash-sums, the earnest entreaty, with complaints(abuse) to access directly to the user. Files for an exchange on tracker are given by users of a site, and the administration does not bear the responsibility for their maintenance. The request to not fill in the files protected by copyrights, and also files of the illegal maintenance!

    [Profile] [PM]
    Display posts from previous:    
    Reply to topic

    The time now is: Today 11:29

    All times are GMT + 3 Hours

    You cannot post new topics in this forum
    You cannot reply to topics in this forum
    You cannot edit your posts in this forum
    You cannot delete your posts in this forum
    You cannot vote in polls in this forum
    You cannot attach files in this forum
    You cannot download files in this forum