BitTorrentTracker PerecTracker.org
BitTorrentTracker PerecTracker.org
    
Регистрация  ·  Вход
 
 · 
Забыли пароль?

  • Ernest Lane And Strength - Live At 39th Internationale Jazzwoche Burghausen [2008 г., American Blues, SATRip]

    Ответить на тему
     
    Автор Сообщение

    Columb

    Создавать темы 30-Ноя-2014 09:52

           

    [Цитировать]

    Ernest Lane And Strength - Live At 39th Internationale Jazzwoche Burghausen
    Страна: USA
    Жанр: American Blues
    Продолжительность: 01:26:49
    Год выпуска: 2008 г.
    Описание: http://programm.ard.de/TV/Programm/Suche/?sendung=2848712907328836
    Треклист:
    01. Ik's Theme
    02. Back At The Chicken Shack
    03. Boogie At Leon's Place
    04. Mercy Mercy Mercy
    05. Caledonia
    06. Blue And Lonesome
    07. I'll Be Watching You
    08. Born With The Blues
    09. Rocket 88
    10. Little Girl, Little Girl
    11. Papa's Got A Brand New Bag
    12. Red Hot Mama
    13. What Kind Of Love
    14. After Hours
    15. What's Wrong Baby
    16. Baby Please
    17. Slidin
    18. I Wanna Take You Higher
    Источник: скачано из сети
    Качество: SATRip
    Контейнер: MKV
    Видео кодек: H.264
    Аудио кодек: AC3
    Видео: AVC, 704x400, 16:9, 1800 Kbps, 25 fps
    Аудио: AC3, 448 Kbps, 48 KHz, 6 ch

    MI

    GeneralUnique ID : 184185916003532063363557524236451951897 (0x8A90EAC6D71227BB97AD5437438FB519)Complete name : K:\Ernest_Lane_And_Strength-Live_At_39th_Internationale_Jazzwoche_Burghausen_(2008)-x264-2014-gFViD\ernest_lane_strength-live_at_39th_internationale_jazzwoche_burghausen_(2008)-x264-2014.mkvFormat : MatroskaFormat version : Version 4 / Version 2File size : 1.36 GiBDuration : 1h 26mnOverall bit rate : 2 250 KbpsEncoded date : UTC 2014-10-26 13:33:09Writing application : mkvmerge v7.3.0 ('Nouages') 32bit built on Oct 22 2014 18:44:01Writing library : libebml v1.3.0 + libmatroska v1.4.1DURATION : 01:26:49.824000000NUMBER_OF_FRAMES : 162807NUMBER_OF_BYTES : 291750144_STATISTICS_WRITING_APP : mkvmerge v7.3.0 ('Nouages') 32bit built on Oct 22 2014 18:44:01_STATISTICS_WRITING_DATE_UTC : 2014-10-26 13:33:09_STATISTICS_TAGS : BPS DURATION NUMBER_OF_FRAMES NUMBER_OF_BYTES
    VideoID : 1Format : AVCFormat/Info : Advanced Video CodecFormat profile : Main@L3.0Format settings, CABAC : YesFormat settings, ReFrames : 5 framesCodec ID : V_MPEG4/ISO/AVCDuration : 1h 26mnBit rate : 1 800 KbpsWidth : 704 pixelsHeight : 400 pixelsDisplay aspect ratio : 16:9Frame rate mode : ConstantFrame rate : 25.000 fpsColor space : YUVChroma subsampling : 4:2:0Bit depth : 8 bitsScan type : ProgressiveBits/(Pixel*Frame) : 0.256Stream size : 1.07 GiB (78%)Writing library : x264 core 142 r2479 dd79a61Encoding settings : cabac=1 / ref=5 / deblock=1:0:0 / analyse=0x1:0x111 / me=umh / subme=9 / psy=1 / psy_rd=1.00:0.00 / mixed_ref=1 / me_range=24 / chroma_me=1 / trellis=1 / 8x8dct=0 / cqm=0 / deadzone=21,11 / fast_pskip=1 / chroma_qp_offset=-2 / threads=9 / lookahead_threads=1 / sliced_threads=0 / nr=0 / decimate=1 / interlaced=0 / bluray_compat=0 / constrained_intra=0 / bframes=16 / b_pyramid=2 / b_adapt=1 / b_bias=0 / direct=1 / weightb=1 / open_gop=0 / weightp=2 / keyint=250 / keyint_min=25 / scenecut=40 / intra_refresh=0 / rc_lookahead=40 / rc=2pass / mbtree=1 / bitrate=1800 / ratetol=1.0 / qcomp=0.60 / qpmin=0 / qpmax=69 / qpstep=4 / cplxblur=20.0 / qblur=0.5 / ip_ratio=1.40 / aq=1:1.00Default : YesForced : No
    AudioID : 2Format : AC-3Format/Info : Audio Coding 3Mode extension : CM (complete main)Format settings, Endianness : BigCodec ID : A_AC3Duration : 1h 26mnBit rate mode : ConstantBit rate : 448 KbpsChannel(s) : 6 channelsChannel positions : Front: L C R, Side: L R, LFESampling rate : 48.0 KHzBit depth : 16 bitsCompression mode : LossyStream size : 278 MiB (20%)Default : YesForced : No

    Скриншоты



    Скачать .torrent

    Скачать торрент-файл бесплатно и на максимальной скорости!

    Как скачивать? · Что такое торрент? · Рейтинг и ограничения

    !ВНИМАНИЕ!
    Сайт не распространяет и не хранит электронные версии произведений, а занимается лишь лишь предоставлением доступа к создаваемому пользователями каталогу ссылок на торрент-файлы, которые содержат только списки хеш-сумм, убедительная просьба с жалобами обращаться напрямую к пользователю. Файлы для обмена на трекере предоставлены пользователями сайта, и администрация не несёт ответственности за их содержание. Просьба не заливать файлы, защищенные авторскими правами, а также файлы нелегального содержания!

    [Профиль] [ЛС]
    Показать сообщения:    
    Ответить на тему

    Текущее время: Сегодня, в 06:55

    Часовой пояс: GMT + 2



    Вы не можете начинать темы
    Вы не можете отвечать на сообщения
    Вы не можете редактировать свои сообщения
    Вы не можете удалять свои сообщения
    Вы не можете голосовать в опросах
    Вы не можете прикреплять файлы к сообщениям
    Вы не можете скачивать файлы