BitTorrentTracker PerecTracker.org
BitTorrentTracker PerecTracker.org
    
Регистрация  ·  Вход
 
 · 
Забыли пароль?

  • Однокомнатные соседи / Соседи по комнате / L.DK (Тайске Кавамура / Taisuke Kawamura) [2014, Япония, мелодрама, комедия, HDRip] DVO [GREEN TEA] + Original Jap + Sub (rus, eng)

    Ответить на тему
     
    Автор Сообщение

    Columb

    Создавать темы 29-Ноя-2014 13:25

           

    [Цитировать]

    Однокомнатные соседи / Соседи по комнате / L.DK--Страна: Япония
    Жанр: мелодрама, комедия
    Год выпуска: 2014
    Продолжительность: 01:53:08-Перевод: Любительский (двухголосый закадровый) [GREEN TEA]-Cубтитры: английские (fansub), русские (Yuli4ka_Daisuke), русские (ФСГ 'Kingdom Loli-Pop Stars!') - отдельно
    Оригинальная аудиодорожка: японский
    Режиссер: Тайске Кавамура / Taisuke Kawamura
    В ролях: Аямэ Горики, Кэнто Ямадзаки, Акиёши Накао, Анна Исибаси, Михо Шираиши, Сэйдзи Фукуси, Реи Окамото, Рен Кирияма, Кент Ямадзаки...
    Описание: Кугаяма Сюсэй, школьный «принц», отказывает всем девушкам, которые хотят с ним встречаться. Лучшая подруга Аой не исключение. За то, что парень отверг её подругу Моэ, девушка ненавидит его… До тех пор, пока по стечению обстоятельств им не приходится жить вместе в тесной квартирке.
    Релиз от -
    Сэмпл: http://multi-up.com/1016016
    Качество видео: HDRip
    Формат видео: AVI
    Видео: MPEG-4 Visual at 2110 Кбит/сек; 720 x 384 (1.875) at 23.976 fps
    Аудио: AC-3 at 192 Кбит/сек; 2 канала, 48,0 КГц [DVO]
    Аудио: AC-3 at 448 Кбит/сек; 6 каналов, 48,0 КГц [Jap]
    Автор -

    MediaInfo

    Общее
    Полное имя : D:\Фильмы\Азиатские\Однокомнатные соседи\L.DK.2014.HDRip.XviD.2200MB. rip by [Assassin's Creed]\L.DK.2014.HDRip.XviD.2200MB. rip by [Assassin's Creed].avi
    Формат : AVI
    Формат/Информация : Audio Video Interleave
    Профиль формата : OpenDML
    Размер файла : 2,19 Гбайт
    Продолжительность : 1 ч. 53 м.
    Общий поток : 2768 Кбит/сек
    Программа кодирования : VirtualDubMod 1.5.10.2 (build 2540/release)
    Библиотека кодирования : VirtualDubMod build 2540/release
    Видео
    Идентификатор : 0
    Формат : MPEG-4 Visual
    Профиль формата : Advanced Simple@L5
    Параметр BVOP формата : 1
    Параметр QPel формата : Нет
    Параметр GMC формата : Без точки перехода
    Параметр матрицы формата : Default (MPEG)
    Идентификатор кодека : XVID
    Идентификатор кодека/Подсказка : XviD
    Продолжительность : 1 ч. 53 м.
    Битрейт : 2110 Кбит/сек
    Ширина : 720 пикселей
    Высота : 384 пикселя
    Соотношение сторон : 1,85:1
    Частота кадров : 23,976 кадра/сек
    Цветовое пространство : YUV
    Субдискретизация насыщенности : 4:2:0
    Битовая глубина : 8 бит
    Тип развёртки : Прогрессивная
    Метод сжатия : С потерями
    Бит/(Пиксели*Кадры) : 0.318
    Размер потока : 1,67 Гбайт (76%)
    Библиотека кодирования : XviD 1.2.1 (UTC 2008-12-04)
    Аудио #1
    Идентификатор : 1
    Формат : AC-3
    Формат/Информация : Audio Coding 3
    Расширение режима : CM (complete main)
    Параметр Endianness формата : Big
    Идентификатор кодека : 2000
    Продолжительность : 1 ч. 53 м.
    Вид битрейта : Постоянный
    Битрейт : 192 Кбит/сек
    Каналы : 2 канала
    Расположение каналов : Front: L R
    Частота : 48,0 КГц
    Битовая глубина : 16 бит
    Метод сжатия : С потерями
    Размер потока : 155 Мбайт (7%)
    Выравнивание : Разделение по промежуткам
    Продолжительность промежутка : 42 мс. (1,00 видеокадр)
    Время предзагрузки промежутка : 500 мс.
    Аудио #2
    Идентификатор : 2
    Формат : AC-3
    Формат/Информация : Audio Coding 3
    Расширение режима : CM (complete main)
    Параметр Endianness формата : Big
    Идентификатор кодека : 2000
    Продолжительность : 1 ч. 53 м.
    Вид битрейта : Постоянный
    Битрейт : 448 Кбит/сек
    Каналы : 6 каналов
    Расположение каналов : Front: L C R, Side: L R, LFE
    Частота : 48,0 КГц
    Битовая глубина : 16 бит
    Метод сжатия : С потерями
    Размер потока : 363 Мбайт (16%)
    Выравнивание : Разделение по промежуткам
    Продолжительность промежутка : 42 мс. (1,00 видеокадр)
    Время предзагрузки промежутка : 500 мс.
    Общее
    Полное имя : D:\Фильмы\Азиатские\Однокомнатные соседи\L.DK.2014.HDRip.XviD.2200MB. rip by [Assassin's Creed]\L.DK.2014.HDRip.XviD.2200MB. rip by [Assassin's Creed].eng.ass
    Размер файла : 113 Кбайт
    Общее
    Полное имя : D:\Фильмы\Азиатские\Однокомнатные соседи\L.DK.2014.HDRip.XviD.2200MB. rip by [Assassin's Creed]\L.DK.2014.HDRip.XviD.2200MB. rip by [Assassin's Creed].Kingdom Loli-Pop Stars.ass
    Размер файла : 130 Кбайт
    Общее
    Полное имя : D:\Фильмы\Азиатские\Однокомнатные соседи\L.DK.2014.HDRip.XviD.2200MB. rip by [Assassin's Creed]\L.DK.2014.HDRip.XviD.2200MB. rip by [Assassin's Creed].Yuli4ka_Daisuke.ass
    Размер файла : 126 Кбайт

    Скриншот c названием фильма

    Скриншоты

    Скачать .torrent

    Скачать торрент-файл бесплатно и на максимальной скорости!

    Как скачивать? · Что такое торрент? · Рейтинг и ограничения

    !ВНИМАНИЕ!
    Сайт не распространяет и не хранит электронные версии произведений, а занимается лишь лишь предоставлением доступа к создаваемому пользователями каталогу ссылок на торрент-файлы, которые содержат только списки хеш-сумм, убедительная просьба с жалобами обращаться напрямую к пользователю. Файлы для обмена на трекере предоставлены пользователями сайта, и администрация не несёт ответственности за их содержание. Просьба не заливать файлы, защищенные авторскими правами, а также файлы нелегального содержания!

    [Профиль] [ЛС]
    Показать сообщения:    
    Ответить на тему

    Текущее время: Сегодня, в 10:01

    Часовой пояс: GMT + 2



    Вы не можете начинать темы
    Вы не можете отвечать на сообщения
    Вы не можете редактировать свои сообщения
    Вы не можете удалять свои сообщения
    Вы не можете голосовать в опросах
    Вы не можете прикреплять файлы к сообщениям
    Вы не можете скачивать файлы