BitTorrentTracker PerecTracker.org
BitTorrentTracker PerecTracker.org
    
Регистрация  ·  Вход
 
 · 
Забыли пароль?

  • Toumani Diabate & le Symmetric Orchestra (Kasse Mady Diabate, Soumaila Kanoute, Mamadou Kouyate, Mohamed Koita, Fanta Mady Kouyate, Fode Kouyate, Ganda Tounkara, Aboubacar Diabate, Baba Dao) - Banlieues Bleues 2013 [2013, World Fusion, DVB]

    Ответить на тему
     
    Автор Сообщение

    Columb

    Создавать темы 29-Ноя-2014 13:25

           

    [Цитировать]

    Toumani Diabaté & le Symmetric Orchestra
    Banlieues Bleues 2013
    -Страна исполнителя: Mali
    Жанр: World Fusion
    Продолжительность: 00:49:58
    Год выпуска: 2013
    Musicians:
    Toumani Diabate - kora et direction musicale
    Kasse Mady Diabate - voix
    Soumaila Kanoute - voix
    Mamadou Kouyate - voix
    Mohamed Koita - basse
    Fanta Mady Kouyate - guitare
    Fode Kouyate - batterie
    Ganda Tounkara - ngoni
    Aboubacar Diabate - percussions
    Baba Dao - claviers
    Треклист:
    Track List:
    - Kaira
    - Mali Sadjo
    - Djelika
    - Mali Ba
    - Jarabi
    - Toumani
    Доп. информация:
    Concert filmé le 20 avril 2013, Salle Jacques Brel - Gonesse,
    Festival Banlieues Bleues 30e édition

    Toumani Diabaté from Wikipedia, the free encyclopedia
    Качество: DVB (Digital Video Broadcasting)
    Контейнер: MPG
    Видео кодек: MPEG2
    Аудио кодек: MP2
    Видео: 2 934 Kbps, 704*576 (16:9), at 25.000 fps, MPEG Video (PAL) (Version 2) (Main@Main) (CustomMatrix / BVOP)
    Аудио: 256 Kbps, 48.0 KHz, 2 channels, MPEG Audio (Version 1) (Layer 2)
    Источник: Digital Satellite > SkyStar2 (TechniSat) > VideoReDo TVSuite v4 (cut) > mpg

    MediaInfo / BDInfo

    GeneralComplete name : C:\rutracker.org_mpg\Toumani Diabate & le Symmetric Orchestra - Banlieues Bleues 2013.mpgFormat : MPEG-PSFile size : 1.14 GiBDuration : 49mn 58sOverall bit rate mode : VariableOverall bit rate : 3 255 Kbps
    VideoID : 224 (0xE0)Format : MPEG VideoFormat version : Version 2Format profile : Main@MainFormat settings, BVOP : YesFormat settings, Matrix : CustomFormat settings, GOP : M=3, N=12Duration : 49mn 58sBit rate mode : VariableBit rate : 2 934 KbpsMaximum bit rate : 15.0 MbpsWidth : 704 pixelsHeight : 576 pixelsDisplay aspect ratio : 16:9Active Format Description : Letterbox 16:9 imageFrame rate : 25.000 fpsStandard : PALColor space : YUVChroma subsampling : 4:2:0Bit depth : 8 bitsScan type : InterlacedScan order : Top Field FirstCompression mode : LossyBits/(Pixel*Frame) : 0.289Time code of first frame : 00:00:00:00Time code source : Group of pictures headerStream size : 1.02 GiB (90%)
    AudioID : 192 (0xC0)Format : MPEG AudioFormat version : Version 1Format profile : Layer 2Duration : 49mn 58sBit rate mode : ConstantBit rate : 256 KbpsChannel(s) : 2 channelsSampling rate : 48.0 KHzCompression mode : LossyDelay relative to video : 8msStream size : 91.5 MiB (8%)

    Скриншоты

    Скачать .torrent

    Скачать торрент-файл бесплатно и на максимальной скорости!

    Как скачивать? · Что такое торрент? · Рейтинг и ограничения

    !ВНИМАНИЕ!
    Сайт не распространяет и не хранит электронные версии произведений, а занимается лишь лишь предоставлением доступа к создаваемому пользователями каталогу ссылок на торрент-файлы, которые содержат только списки хеш-сумм, убедительная просьба с жалобами обращаться напрямую к пользователю. Файлы для обмена на трекере предоставлены пользователями сайта, и администрация не несёт ответственности за их содержание. Просьба не заливать файлы, защищенные авторскими правами, а также файлы нелегального содержания!

    [Профиль] [ЛС]
    Показать сообщения:    
    Ответить на тему

    Текущее время: Сегодня, в 02:28

    Часовой пояс: GMT + 2



    Вы не можете начинать темы
    Вы не можете отвечать на сообщения
    Вы не можете редактировать свои сообщения
    Вы не можете удалять свои сообщения
    Вы не можете голосовать в опросах
    Вы не можете прикреплять файлы к сообщениям
    Вы не можете скачивать файлы