BitTorrentTracker PerecTracker.org
BitTorrentTracker PerecTracker.org
    
Регистрация  ·  Вход
 
 · 
Забыли пароль?

  • Бесстыжие, Сезон 2 / Shameless (US), Season Two (Марк Майлод, Джон Уэллс, Санаа Хамри, Джон Дал) [2012 г., драма, комедия, BDRip]

    Ответить на тему
     
    Автор Сообщение

    Columb

    Создавать темы 19-Фев-2013 13:59

           

    [Цитировать]

    Бесстыжие, Сезон 2 / Shameless (US), Season Two-Cлоган: «The Gallaghers: Absolutely, Wildly, Unapologetically...»Год выпуска: 2012
    Страна: США
    Жанр: драма, комедия
    Продолжительность: ~00:53:00 x12
    Перевод: Профессиональный (многоголосый, закадровый) + Оригинальная дорожка AlexFilm
    Субтитры: нет
    Режиссер: Марк Майлод, Джон Уэллс, Санаа Хамри, Джон Дал


    В ролях: Уильям Х. Мэйси (Frank Gallagher), Эмми Россам (Fiona Gallagher), Джастин Чэтвин (Steve), Шанола Хэмптон (Veronica Fisher), Стив Хоуи (Kevin Ball), Джереми Аллен Уайт (Lip Gallagher), Камерон Монахэн (Ian Gallagher), Эмма Кинни (Debbie Gallagher), Итан Каткоски (Carl Gallagher), Лаура Уиггинс (Karen Jackson), Джоан Кьюсак (Sheila Jackson), Зэк Макгоун (Jody Silverman)
    Описание: Shameless, основанный на одноименном британском сериале, расскажет о семействе Галлагеров из Чикаго. Мать уже давно бросила семью, а отец-алкоголик обычно лежит в отключке, поэтому 18-летней дочери приходится взять на себя обязанности родителя и воспитывать пятерых братьев и сестер.
    Качество: BDRip
    Формат: AVI
    Видео кодек: XviD
    Аудио кодек: AC3
    Видео: XviD, 704x400 (16:9), 23.976 fps, ~1800 kbps, ~0.270 bpp
    Аудио: Русский: AC3, 48 kHz, 3/2 (L,C,R,l,r) + LFE ch, ~384 kbps
    Аудио 2: Английский: AC3, 48 kHz, 3/2 (L,C,R,l,r) + LFE ch, ~384 kbps

    MediaInfo

    General
    Complete name : J:\torrents\Shameless\Shameless.US.S02.BDRip.AlexFilm\Shameless (US) S02E01 Summertime.avi
    Format : AVI
    Format/Info : Audio Video Interleave
    File size : 998 MiB
    Duration : 53mn 2s
    Overall bit rate : 2 632 Kbps
    Writing application : VirtualDubMod 1.5.10.3 | www.virtualdub-fr.org || (build 2550/release)
    Writing library : VirtualDubMod build 2550/release
    Video
    ID : 0
    Format : MPEG-4 Visual
    Format profile : Advanced Simple@L5
    Format settings, BVOP : 1
    Format settings, QPel : No
    Format settings, GMC : No warppoints
    Format settings, Matrix : Custom
    Codec ID : XVID
    Codec ID/Hint : XviD
    Duration : 53mn 2s
    Bit rate : 1 850 Kbps
    Width : 704 pixels
    Height : 400 pixels
    Display aspect ratio : 16:9
    Frame rate : 23.976 fps
    Color space : YUV
    Chroma subsampling : 4:2:0
    Bit depth : 8 bits
    Scan type : Progressive
    Compression mode : Lossy
    Bits/(Pixel*Frame) : 0.274
    Stream size : 702 MiB (70%)
    Writing library : XviD 65
    Audio #1
    ID : 1
    Format : AC-3
    Format/Info : Audio Coding 3
    Mode extension : CM (complete main)
    Codec ID : 2000
    Duration : 53mn 2s
    Bit rate mode : Constant
    Bit rate : 384 Kbps
    Channel(s) : 6 channels
    Channel positions : Front: L C R, Side: L R, LFE
    Sampling rate : 48.0 KHz
    Bit depth : 16 bits
    Compression mode : Lossy
    Stream size : 146 MiB (15%)
    Alignment : Split accross interleaves
    Interleave, duration : 42 ms (1.00 video frame)
    Interleave, preload duration : 500 ms
    Audio #2
    ID : 2
    Format : AC-3
    Format/Info : Audio Coding 3
    Mode extension : CM (complete main)
    Codec ID : 2000
    Duration : 53mn 2s
    Bit rate mode : Constant
    Bit rate : 384 Kbps
    Channel(s) : 6 channels
    Channel positions : Front: L C R, Side: L R, LFE
    Sampling rate : 48.0 KHz
    Bit depth : 16 bits
    Compression mode : Lossy
    Stream size : 146 MiB (15%)
    Alignment : Split accross interleaves
    Interleave, duration : 42 ms (1.00 video frame)
    Interleave, preload duration : 500 ms

    Скриншоты




    Скачать .torrent

    Скачать торрент-файл бесплатно и на максимальной скорости!

    Как скачивать? · Что такое торрент? · Рейтинг и ограничения

    !ВНИМАНИЕ!
    Сайт не распространяет и не хранит электронные версии произведений, а занимается лишь лишь предоставлением доступа к создаваемому пользователями каталогу ссылок на торрент-файлы, которые содержат только списки хеш-сумм, убедительная просьба с жалобами обращаться напрямую к пользователю. Файлы для обмена на трекере предоставлены пользователями сайта, и администрация не несёт ответственности за их содержание. Просьба не заливать файлы, защищенные авторскими правами, а также файлы нелегального содержания!

    [Профиль] [ЛС]
    Показать сообщения:    
    Ответить на тему

    Текущее время: Сегодня, в 22:09

    Часовой пояс: GMT + 2



    Вы не можете начинать темы
    Вы не можете отвечать на сообщения
    Вы не можете редактировать свои сообщения
    Вы не можете удалять свои сообщения
    Вы не можете голосовать в опросах
    Вы не можете прикреплять файлы к сообщениям
    Вы не можете скачивать файлы