BitTorrentTracker PerecTracker.org
BitTorrentTracker PerecTracker.org
    
Регистрация  ·  Вход
 
 · 
Забыли пароль?

  • Коридоры крови / Corridors of Blood (Роберт Дэй / Robert Day) [1958, Великобритания, ужасы, триллер, драма, криминал, WEB-DLRip] AVO (Кузнецов) + Sub Rus, Eng + Original Eng

    Ответить на тему
     
    Автор Сообщение

    Columb

    Создавать темы 29-Ноя-2014 12:04

           

    [Цитировать]

    Коридоры крови / Corridors of Blood
    Страна: Великобритания
    Жанр: ужасы, триллер, драма, криминал
    Год выпуска: 1958
    Продолжительность: 01:26:58
    Перевод: Авторский (одноголосый закадровый) Сергей Кузнецов
    Cубтитры: русские, английские
    Оригинальная аудиодорожка: английский
    Режиссер: Роберт Дэй / Robert Day
    В ролях: Борис Карлофф, Бетта Ст. Джон, Кристофер Ли, Финлэй Карри, Эдриенн Корри, Френсис Де Вулф, Френсис Мэтьюз, Фрэнк Петтинджелл, Бэзил Дигнэм, Мэриэн Спенсер
    Описание: Стремясь облегчить страдания своих пациентов, врач Болтон разрабатывает принципиально новый вид анестетика. Но поскольку его ключевым ингредиентом является опиум, вскоре у самого Болтона развивается сильнейшая зависимость от него.
    Доп. информация:


    За дорожку с переводом спасибо Argento87
    Сэмпл: http://sendfile.su/1054064
    Качество видео: WEB-DLRip
    Формат видео: AVI
    Видео: XviD, 720x544, 23,976fps, 2011kbps, 0.214bit/pixel
    Аудио 1: AC3, 48000Hz, 2ch, 192kbps
    Аудио 2: AC3, 48000Hz, 1ch, 192kbps - оригинал
    Формат субтитров: softsub (SRT)

    MediaInfo

    Общее
    Полное имя : T:\Коридоры крови\Corridors of Blood.avi
    Формат : AVI
    Формат/Информация : Audio Video Interleave
    Размер файла : 1,46 Гбайт
    Продолжительность : 1 ч. 26 м.
    Общий поток : 2409 Кбит/сек
    Программа кодирования : VirtualDubMod 1.5.10.2 (build 2540/release)
    Библиотека кодирования : VirtualDubMod build 2540/release
    Видео
    Идентификатор : 0
    Формат : MPEG-4 Visual
    Профиль формата : Advanced Simple@L5
    Параметр BVOP формата : 2
    Параметр QPel формата : Нет
    Параметр GMC формата : Без точки перехода
    Параметр матрицы формата : Выборочная
    Идентификатор кодека : XVID
    Идентификатор кодека/Подсказка : XviD
    Продолжительность : 1 ч. 26 м.
    Битрейт : 2011 Кбит/сек
    Ширина : 720 пикселей
    Высота : 544 пикселя
    Соотношение сторон : 4:3
    Частота кадров : 23,976 кадра/сек
    Цветовое пространство : YUV
    Субдискретизация насыщенности : 4:2:0
    Битовая глубина : 8 бит
    Тип развёртки : Прогрессивная
    Метод сжатия : С потерями
    Бит/(Пиксели*Кадры) : 0.214
    Размер потока : 1,22 Гбайт (83%)
    Библиотека кодирования : XviD 65
    Аудио #1
    Идентификатор : 1
    Формат : AC-3
    Формат/Информация : Audio Coding 3
    Расширение режима : CM (complete main)
    Параметр Endianness формата : Big
    Идентификатор кодека : 2000
    Продолжительность : 1 ч. 26 м.
    Вид битрейта : Постоянный
    Битрейт : 192 Кбит/сек
    Каналы : 2 канала
    Расположение каналов : Front: L R
    Частота : 48,0 КГц
    Битовая глубина : 16 бит
    Метод сжатия : С потерями
    Размер потока : 119 Мбайт (8%)
    Выравнивание : Разделение по промежуткам
    Продолжительность промежутка : 42 мс. (1,00 видеокадр)
    Время предзагрузки промежутка : 500 мс.
    Аудио #2
    Идентификатор : 2
    Формат : AC-3
    Формат/Информация : Audio Coding 3
    Расширение режима : CM (complete main)
    Параметр Endianness формата : Big
    Идентификатор кодека : 2000
    Продолжительность : 1 ч. 26 м.
    Вид битрейта : Постоянный
    Битрейт : 192 Кбит/сек
    Каналы : 1 канал
    Расположение каналов : Front: C
    Частота : 48,0 КГц
    Битовая глубина : 16 бит
    Метод сжатия : С потерями
    Размер потока : 119 Мбайт (8%)
    Выравнивание : Разделение по промежуткам
    Продолжительность промежутка : 42 мс. (1,00 видеокадр)
    Время предзагрузки промежутка : 500 мс.

    Скриншоты

    Скачать .torrent

    Скачать торрент-файл бесплатно и на максимальной скорости!

    Как скачивать? · Что такое торрент? · Рейтинг и ограничения

    !ВНИМАНИЕ!
    Сайт не распространяет и не хранит электронные версии произведений, а занимается лишь лишь предоставлением доступа к создаваемому пользователями каталогу ссылок на торрент-файлы, которые содержат только списки хеш-сумм, убедительная просьба с жалобами обращаться напрямую к пользователю. Файлы для обмена на трекере предоставлены пользователями сайта, и администрация не несёт ответственности за их содержание. Просьба не заливать файлы, защищенные авторскими правами, а также файлы нелегального содержания!

    [Профиль] [ЛС]
    Показать сообщения:    
    Ответить на тему

    Текущее время: Сегодня, в 12:13

    Часовой пояс: GMT + 2



    Вы не можете начинать темы
    Вы не можете отвечать на сообщения
    Вы не можете редактировать свои сообщения
    Вы не можете удалять свои сообщения
    Вы не можете голосовать в опросах
    Вы не можете прикреплять файлы к сообщениям
    Вы не можете скачивать файлы