BitTorrentTracker PerecTracker.org
BitTorrentTracker PerecTracker.org
    
Регистрация  ·  Вход
 
 · 
Забыли пароль?

  • Свадьба с приданым (Т.Лукашевич, Б.Равенских) [1953, Мюзикл, комедия, DVDRip]

    Ответить на тему
     
    Автор Сообщение

    Columb

    Создавать темы 28-Ноя-2014 13:30

           

    [Цитировать]

    Свадьба с приданымЖанр: Мюзикл, комедия
    Год выпуска: 1953
    Продолжительность: 01:56:53
    Режиссёр: Т.Лукашевич, Б.Равенских
    В ролях: В.Васильева, В.Ушаков, В.Дорофеев, К.Канаева, Т.Пельтцер, Б.Рунге и др.
    Описание: Экранизация одного из популярных в прошлом спектаклей московского Театра сатиры. Два бригадира соседних колхозов влюблены друг в друга. Она - известная ударница труда, он - трудолюбив, но не в меру тщеславен. Взгляды на колхозные дела у них разные, а характеры одинаковые, гордые и независимые. Происшедшая ссора героев завершилась бы разрывом, если бы соревнование двух колхозов не привело к богатому урожаю в обоих хозяйствах и традиционной осенней свадьбе..
    Доп. информация:
    Рип от:
    Сэмпл: http://multi-up.com/1015784
    Качество видео: DVDRip
    Формат видео: AVI
    Видео: 640x480 (1.33:1), 25 fps, XviD build 73 ~760 kbps avg, 0.10 bit/pixel
    Аудио: 48 kHz, MPEG Layer 3, 2 ch, ~128.00 kbps avg

    MediaInfo

    General
    Complete name : D:\Торрент\Мои рипы\Свадьба с приданым\Свадьба с приданым_Шкипер.avi
    Format : AVI
    Format/Info : Audio Video Interleave
    File size : 751 MiB
    Duration : 1h 56mn
    Overall bit rate : 898 Kbps
    Writing application : VirtualDubMod 1.5.10.3 | www.virtualdub-fr.org || (build 2550/release)
    Writing library : VirtualDubMod build 2550/release
    Video
    ID : 0
    Format : MPEG-4 Visual
    Format profile : Advanced Simple@L5
    Format settings, BVOP : 1
    Format settings, QPel : No
    Format settings, GMC : No warppoints
    Format settings, Matrix : Default (MPEG)
    Codec ID : XVID
    Codec ID/Hint : XviD
    Duration : 1h 56mn
    Bit rate : 761 Kbps
    Width : 640 pixels
    Height : 480 pixels
    Display aspect ratio : 4:3
    Frame rate : 25.000 fps
    Color space : YUV
    Chroma subsampling : 4:2:0
    Bit depth : 8 bits
    Scan type : Progressive
    Compression mode : Lossy
    Bits/(Pixel*Frame) : 0.099
    Stream size : 636 MiB (85%)
    Writing library : XviD 73
    Audio
    ID : 1
    Format : MPEG Audio
    Format version : Version 1
    Format profile : Layer 3
    Mode : Joint stereo
    Mode extension : MS Stereo
    Codec ID : 55
    Codec ID/Hint : MP3
    Duration : 1h 56mn
    Bit rate mode : Constant
    Bit rate : 128 Kbps
    Channel(s) : 2 channels
    Sampling rate : 48.0 KHz
    Compression mode : Lossy
    Stream size : 107 MiB (14%)
    Alignment : Aligned on interleaves
    Interleave, duration : 40 ms (1.00 video frame)
    Interleave, preload duratio : 504 ms
    Writing library : LAME3.99r
    Encoding settings : -m j -V 4 -q 2 -lowpass 17 -b 128

    Скриншот c названием фильма

    Скриншоты

    Скачать .torrent

    Скачать торрент-файл бесплатно и на максимальной скорости!

    Как скачивать? · Что такое торрент? · Рейтинг и ограничения

    !ВНИМАНИЕ!
    Сайт не распространяет и не хранит электронные версии произведений, а занимается лишь лишь предоставлением доступа к создаваемому пользователями каталогу ссылок на торрент-файлы, которые содержат только списки хеш-сумм, убедительная просьба с жалобами обращаться напрямую к пользователю. Файлы для обмена на трекере предоставлены пользователями сайта, и администрация не несёт ответственности за их содержание. Просьба не заливать файлы, защищенные авторскими правами, а также файлы нелегального содержания!

    [Профиль] [ЛС]
    Показать сообщения:    
    Ответить на тему

    Текущее время: Сегодня, в 12:52

    Часовой пояс: GMT + 2



    Вы не можете начинать темы
    Вы не можете отвечать на сообщения
    Вы не можете редактировать свои сообщения
    Вы не можете удалять свои сообщения
    Вы не можете голосовать в опросах
    Вы не можете прикреплять файлы к сообщениям
    Вы не можете скачивать файлы