BitTorrentTracker PerecTracker.org
BitTorrentTracker PerecTracker.org
    
Регистрация  ·  Вход
 
 · 
Забыли пароль?

  • Мама (Элизабета Бостан) [1976, сказка, мюзикл, DVDRip] [MP4, 640x]

    Ответить на тему
     
    Автор Сообщение

    Columb

    Создавать темы 26-Ноя-2014 16:52

           

    [Цитировать]

    Мама-Год выпуска: 1976
    Страна: СССР, Франция, Румыния (Мосфильм, Ralux Film, Romania Film)
    Жанр: Сказка, мюзикл
    Продолжительность: 01:23:10
    Перевод: Не требуется
    Cубтитры: Нет-Режиссер: Элизабета Бостан-В ролях: Людмила Гурченко, Михаил Боярский, Олег Попов, Савелий Крамаров, Валентин Манохин, Джордже Михаица, Флориан Питиш, Вера Ивлева, Евгений Герчаков, Наталия Крачковская, Марина Поляк, Виолета Андрей, Паула Радулеску, Василе Менцель, Лилиана Петреску, Лулу Михаеску, Петя Дегтярёв, Тимур Асалиев, Адрйан Кристя, Матей Оприш-Описание: Остроумная музыкальная версия всем известной истории про Серого Волка, семерых козлят (в фильме их пятеро) и их очаровательную героическую Маму.- -Качество: DVDRip
    Формат: MP4
    Видео: AVC, 640х304 (2.105), 972 kbps, 25.000 fps
    Аудио: Русский, AAC, 2 ch, 48 kHz, 128 kbps-

    Награды и номинации

    Специальный приз на МКФ для детей в Венеции в 1977 году.
    Log/MediaInfo

    Log

    x264 [info]: frame I:880 Avg QP:19.41 size: 34856
    x264 [info]: frame P:28407 Avg QP:22.66 size: 11056
    x264 [info]: frame B:95476 Avg QP:26.05 size: 2743
    x264 [info]: consecutive B-frames: 1.7% 2.1% 7.1% 37.7% 16.0% 31.2% 2.8% 1.1% 0.3%
    x264 [total]: encoded 124763 frames, 13.69 fps, 972.42 kb/s
    General
    Complete name : [VIDEO] Mama.1976.DVDRip.x264.640x(semen_52-TNC).mp4
    Format : MPEG-4
    Format profile : Base Media
    Codec ID : isom
    File size : 659 MiB
    Duration : 1h 23mn
    Overall bit rate mode : Variable
    Overall bit rate : 1 108 Kbps
    Movie name : [VIDEO] Mama 1976 DVDRip x264 640x(semen_52-TNC)
    ContentType : Short Film
    Encoded date : UTC 2014-11-26 13:27:15
    Tagged date : UTC 2014-11-26 13:28:34
    Writing application : MkvToMp4 version: 0.224 (x64)
    Comment : Rip by semen_52-TNC
    Video
    ID : 1
    Format : AVC
    Format/Info : Advanced Video Codec
    Format profile : High@L4.1
    Format settings, CABAC : Yes
    Format settings, ReFrames : 8 frames
    Codec ID : avc1
    Codec ID/Info : Advanced Video Coding
    Duration : 1h 23mn
    Bit rate : 972 Kbps
    Maximum bit rate : 3 241 Kbps
    Width : 640 pixels
    Height : 304 pixels
    Display aspect ratio : 2.105
    Frame rate mode : Constant
    Frame rate : 25.000 fps
    Color space : YUV
    Chroma subsampling : 4:2:0
    Bit depth : 8 bits
    Scan type : Progressive
    Bits/(Pixel*Frame) : 0.200
    Stream size : 579 MiB (88%)
    Writing library : x264 core 130 r2273 b3065e6
    Encoding settings : cabac=1 / ref=8 / deblock=1:-3:-3 / analyse=0x3:0x133 / me=esa / subme=9 / psy=1 / psy_rd=1.00:0.10 / mixed_ref=1 / me_range=32 / chroma_me=1 / trellis=2 / 8x8dct=1 / cqm=0 / deadzone=21,11 / fast_pskip=0 / chroma_qp_offset=-3 / threads=12 / lookahead_threads=2 / sliced_threads=0 / nr=0 / decimate=1 / interlaced=0 / bluray_compat=0 / constrained_intra=0 / bframes=8 / b_pyramid=2 / b_adapt=2 / b_bias=0 / direct=1 / weightb=1 / open_gop=0 / weightp=2 / keyint=250 / keyint_min=25 / scenecut=40 / intra_refresh=0 / rc_lookahead=60 / rc=crf / mbtree=1 / crf=21.0 / qcomp=0.60 / qpmin=0 / qpmax=69 / qpstep=4 / ip_ratio=1.40 / aq=1:0.90
    Language : English
    Encoded date : UTC 2014-11-26 13:27:15
    Tagged date : UTC 2014-11-26 13:27:30
    Audio
    ID : 2
    Format : AAC
    Format/Info : Advanced Audio Codec
    Format profile : LC
    Codec ID : 40
    Duration : 1h 23mn
    Bit rate mode : Variable
    Bit rate : 128 Kbps
    Maximum bit rate : 131 Kbps
    Channel(s) : 2 channels
    Channel positions : Front: L R
    Sampling rate : 48.0 KHz
    Compression mode : Lossy
    Stream size : 76.1 MiB (12%)
    Language : Russian
    Encoded date : UTC 2014-11-26 13:27:26
    Tagged date : UTC 2014-11-26 13:27:30

    Скриншоты

    Скачать .torrent

    Скачать торрент-файл бесплатно и на максимальной скорости!

    Как скачивать? · Что такое торрент? · Рейтинг и ограничения

    !ВНИМАНИЕ!
    Сайт не распространяет и не хранит электронные версии произведений, а занимается лишь лишь предоставлением доступа к создаваемому пользователями каталогу ссылок на торрент-файлы, которые содержат только списки хеш-сумм, убедительная просьба с жалобами обращаться напрямую к пользователю. Файлы для обмена на трекере предоставлены пользователями сайта, и администрация не несёт ответственности за их содержание. Просьба не заливать файлы, защищенные авторскими правами, а также файлы нелегального содержания!

    [Профиль] [ЛС]
    Показать сообщения:    
    Ответить на тему

    Текущее время: Сегодня, в 08:17

    Часовой пояс: GMT + 2



    Вы не можете начинать темы
    Вы не можете отвечать на сообщения
    Вы не можете редактировать свои сообщения
    Вы не можете удалять свои сообщения
    Вы не можете голосовать в опросах
    Вы не можете прикреплять файлы к сообщениям
    Вы не можете скачивать файлы