BitTorrentTracker PerecTracker.org
BitTorrentTracker PerecTracker.org
    
Регистрация  ·  Вход
 
 · 
Забыли пароль?

  • The Rolling Stones - From The Vault Hampton Coliseum, Live In 1981 [2014, Rock, SDBlu-ray]

    Ответить на тему
     
    Автор Сообщение

    Columb

    Создавать темы 25-Ноя-2014 18:06

           

    [Цитировать]

    From The Vault Hampton Coliseum---Жанр: Rock
    Продолжительность: 02:29:51
    Год выпуска: 2014-Описание: 'From The Vault' is a new series of live concerts from The Rolling Stones archive which are getting their first official release. 'Hampton Coliseum Live In 1981' is the first title in this series. The Rolling Stones American Tour in 1981 was the most successful tour of that year taking a then record $50 million dollars in ticket sales. The tour was in support of the critically and commercially successful 'Tattoo You' album. There were fifty dates on the tour which ran from Philadelphia at the end of September through to Hampton, Virginia on the 18th and 19th of December. The show on December 18th, which was also Keith Richards birthday, was the first ever music concert to be broadcast on television as a pay-per-view event. The footage has now been carefully restored and the sound has been newly mixed by Bob Clearmountain for this first official release of the show.-Треклист:
    01. Under My Thumb
    02. When The Whip Comes Down
    03. Let s Spend The Night Together
    04. Shattered
    05. Neighbours
    06. Black Limousine
    07. Just My Imagination
    08. Twenty Flight Rock
    09. Going To A Go Go
    10. Let Me Go
    11. Time Is On My Side
    12. Beast Of Burden
    13. Waiting On A Friend
    14. Let It Bleed
    15. You Can t Always Get What You Want
    16. Band Introductions
    17. Happy Birthday Keith
    18. Little T & A
    19. Tumbling Dice
    20. She s So Cold
    21. Hang Fire
    22. Miss You
    23. Honky Tonk Women
    24. Brown Sugar
    25. Start Me Up
    26. Jumping Jack Flash
    27. (I Can t Get No) Satisfaction
    Musicians:
    Mick Jagger - vocals, guitar
    Keith Richards - guitar, vocals
    Charlie Watts - drums
    Bill Wyman - bass
    Ronnie Wood - guitar
    Ian Stewart - piano
    Additional Musicians:
    Ian McLagan - keyboards, backing vocals
    Ernie Watts - saxophone
    Bobby Keys - saxophone-Качество: SDBlu-ray
    Контейнер: BDMV
    Видео кодек: AVC
    Аудио кодек: PCM
    Видео: MPEG-4 AVC Video / 27513 kbps / 1080i / 29,970 fps / 16:9 / High Profile 4.1
    Аудио #1: LPCM Audio / 4608 kbps / 2.0 / 96 kHz / 24-bit
    Аудио #2: DTS-HD Master Audio / 9048 kbps / 5.1 / 96 kHz / 24-bit (DTS Core: 5.1 / 48 kHz / 1509 kbps / 24-bit)

    BDInfo

    Disc Title: The Rolling Stones - Hampton ColiseumDisc Size: 48 991 018 483 bytesProtection: AACSBD-Java: NoBDInfo: 0.5.8
    Notes:
    BDINFO HOME: Cinema Squid http://www.cinemasquid.com/blu-ray/tools/bdinfo
    INCLUDES FORUMS REPORT FOR: AVS Forum Blu-ray Audio and Video Specifications Thread http://www.avsforum.com/avs-vb/showthread.php?t=1155731
    ********************PLAYLIST: 00002.MPLS********************
    Total   Video
    Title                                                           Codec   Length  Movie Size      Disc Size       Bitrate Bitrate Main Audio Track                          Secondary Audio Track
    -----                                                           ------  ------- --------------  --------------  ------- ------- ------------------                        ---------------------
    00002.MPLS                                                      AVC     2:29:51 48 761 500 992  48 991 018 483  43,38   27,51   LPCM 2.0 4608Kbps (96kHz/24-bit)          DTS-HD Master 5.1 9048Kbps (96kHz/24-bit)
    DISC INFO:
    Disc Title:     The Rolling Stones - Hampton Coliseum
    Disc Size:      48 991 018 483 bytes
    Protection:     AACS
    BD-Java:        No
    BDInfo:         0.5.8
    PLAYLIST REPORT:
    Name:                   00002.MPLS
    Length:                 2:29:51.816 (h:m:s.ms)
    Size:                   48 761 500 992 bytes
    Total Bitrate:          43,38 Mbps
    VIDEO:
    Codec                   Bitrate             Description
    -----                   -------             -----------
    MPEG-4 AVC Video        27513 kbps          1080i / 29,970 fps / 16:9 / High Profile 4.1
    AUDIO:
    Codec                           Language        Bitrate         Description
    -----                           --------        -------         -----------
    LPCM Audio                      English         4608 kbps       2.0 / 96 kHz / 4608 kbps / 24-bit
    DTS-HD Master Audio             English         9048 kbps       5.1 / 96 kHz / 9048 kbps / 24-bit (DTS Core: 5.1 / 48 kHz / 1509 kbps / 24-bit)
    FILES:
    Name            Time In         Length          Size            Total Bitrate
    ----            -------         ------          ----            -------------
    00002.M2TS      0:00:00.000     2:29:51.816     48 761 500 992  43 384
    CHAPTERS:
    Number          Time In         Length          Avg Video Rate  Max 1-Sec Rate  Max 1-Sec Time  Max 5-Sec Rate  Max 5-Sec Time  Max 10Sec Rate  Max 10Sec Time  Avg Frame Size  Max Frame Size  Max Frame Time
    ------          -------         ------          --------------  --------------  --------------  --------------  --------------  --------------  --------------  --------------  --------------  --------------
    1               0:00:00.000     0:06:01.728     27 146 kbps     38 053 kbps     00:05:46.245    35 112 kbps     00:02:27.447    34 203 kbps     00:05:10.243    113 212 bytes   321 685 bytes   00:02:29.949
    2               0:06:01.728     0:05:20.019     27 006 kbps     39 498 kbps     00:10:35.534    34 270 kbps     00:08:15.728    32 330 kbps     00:10:27.994    112 637 bytes   291 367 bytes   00:10:12.078
    3               0:11:21.747     0:05:21.921     27 589 kbps     38 418 kbps     00:15:11.744    34 032 kbps     00:15:43.709    32 695 kbps     00:15:41.340    115 070 bytes   299 679 bytes   00:16:38.163
    4               0:16:43.669     0:04:41.281     26 476 kbps     38 144 kbps     00:17:56.075    32 998 kbps     00:16:53.479    31 617 kbps     00:17:54.339    110 427 bytes   310 906 bytes   00:19:12.351
    5               0:21:24.950     0:04:50.056     26 993 kbps     38 998 kbps     00:25:24.990    33 808 kbps     00:25:39.371    32 759 kbps     00:25:40.906    112 585 bytes   294 735 bytes   00:25:48.480
    6               0:26:15.006     0:04:23.529     29 154 kbps     40 178 kbps     00:30:16.981    35 146 kbps     00:29:01.039    34 545 kbps     00:28:58.536    121 596 bytes   320 590 bytes   00:28:43.555
    7               0:30:38.536     0:04:11.951     26 757 kbps     39 596 kbps     00:34:12.617    33 378 kbps     00:34:45.483    31 337 kbps     00:33:25.069    111 600 bytes   295 414 bytes   00:34:48.085
    8               0:34:50.488     0:10:12.211     28 583 kbps     37 783 kbps     00:35:41.439    34 477 kbps     00:39:25.162    33 168 kbps     00:34:50.888    119 215 bytes   306 766 bytes   00:39:29.667
    9               0:45:02.700     0:01:46.372     27 468 kbps     39 282 kbps     00:46:37.594    32 607 kbps     00:46:36.093    30 772 kbps     00:46:31.088    114 564 bytes   279 720 bytes   00:45:55.919
    10              0:46:49.072     0:04:05.078     29 166 kbps     35 988 kbps     00:47:52.536    33 746 kbps     00:47:50.901    32 713 kbps     00:49:00.804    121 647 bytes   287 869 bytes   00:47:27.277
    11              0:50:54.151     0:06:01.761     30 001 kbps     38 818 kbps     00:55:06.169    34 343 kbps     00:54:09.980    33 443 kbps     00:54:10.780    125 129 bytes   303 349 bytes   00:56:04.361
    12              0:56:55.912     0:04:19.525     26 896 kbps     36 741 kbps     00:58:02.745    31 812 kbps     00:57:45.361    31 025 kbps     00:59:58.828    112 177 bytes   289 781 bytes   00:57:47.163
    13              1:01:15.438     0:07:51.971     22 867 kbps     39 337 kbps     01:02:08.391    33 835 kbps     01:02:32.782    33 493 kbps     01:02:32.115    95 376 bytes    295 348 bytes   01:03:47.490
    14              1:09:07.409     0:06:03.896     26 457 kbps     35 752 kbps     01:11:43.232    33 460 kbps     01:11:41.597    32 181 kbps     01:13:13.655    110 346 bytes   300 712 bytes   01:11:44.199
    15              1:15:11.306     0:07:09.896     29 113 kbps     36 266 kbps     01:22:02.684    34 480 kbps     01:19:29.498    34 122 kbps     01:19:29.464    121 423 bytes   298 142 bytes   01:19:31.266
    16              1:22:21.202     0:09:35.241     27 525 kbps     38 911 kbps     01:28:27.535    34 064 kbps     01:26:45.466    33 643 kbps     01:26:40.028    114 801 bytes   307 882 bytes   01:26:42.463
    17              1:31:56.444     0:01:12.072     27 654 kbps     36 329 kbps     01:32:08.756    34 247 kbps     01:32:07.855    32 088 kbps     01:32:07.154    115 342 bytes   291 813 bytes   01:32:08.823
    18              1:33:08.516     0:00:35.802     25 589 kbps     32 341 kbps     01:33:33.674    29 774 kbps     01:33:32.807    28 812 kbps     01:33:25.499    106 728 bytes   273 655 bytes   01:33:26.334
    19              1:33:44.318     0:04:07.914     26 030 kbps     40 177 kbps     01:37:18.799    34 733 kbps     01:35:51.278    33 893 kbps     01:35:46.640    108 567 bytes   289 793 bytes   01:35:55.483
    20              1:37:52.233     0:04:54.227     26 880 kbps     38 100 kbps     01:41:57.211    33 495 kbps     01:41:49.536    32 984 kbps     01:41:48.202    112 113 bytes   294 475 bytes   01:41:52.906
    21              1:42:46.460     0:04:25.298     26 642 kbps     39 106 kbps     01:43:48.822    32 854 kbps     01:43:48.822    31 572 kbps     01:43:48.622    111 120 bytes   286 916 bytes   01:44:44.378
    22              1:47:11.758     0:03:12.392     27 543 kbps     36 709 kbps     01:49:38.338    32 372 kbps     01:48:04.311    31 948 kbps     01:47:13.326    114 877 bytes   280 378 bytes   01:48:04.511
    23              1:50:24.150     0:07:48.234     27 389 kbps     38 825 kbps     01:55:54.247    33 627 kbps     01:55:39.766    31 975 kbps     01:55:37.497    114 236 bytes   291 272 bytes   01:55:40.733
    24              1:58:12.385     0:03:41.688     26 475 kbps     38 273 kbps     01:58:17.790    33 836 kbps     01:58:17.490    31 124 kbps     01:59:51.817    110 422 bytes   293 781 bytes   02:01:23.743
    25              2:01:54.073     0:03:39.118     25 996 kbps     40 001 kbps     02:05:07.600    32 400 kbps     02:05:05.431    31 029 kbps     02:01:54.273    108 426 bytes   296 407 bytes   02:05:10.936
    26              2:05:33.192     0:05:06.239     28 523 kbps     38 602 kbps     02:08:01.907    35 638 kbps     02:06:35.387    35 027 kbps     02:07:39.818    118 963 bytes   338 691 bytes   02:07:43.222
    27              2:10:39.431     0:09:59.031     27 179 kbps     38 156 kbps     02:12:24.937    34 675 kbps     02:17:44.289    33 526 kbps     02:17:39.851    113 359 bytes   314 082 bytes   02:19:39.637
    28              2:20:38.463     0:09:13.352     30 954 kbps     35 707 kbps     02:28:56.694    33 828 kbps     02:25:12.770    33 482 kbps     02:25:09.867    129 142 bytes   298 823 bytes   02:28:46.317
    STREAM DIAGNOSTICS:
    File            PID             Type            Codec           Language                Seconds                 Bitrate                 Bytes           Packets
    ----            ---             ----            -----           --------                --------------          --------------          -------------   -----
    00002.M2TS      4113 (0x1011)   0x1B            AVC                                     8991,549                27 513                  30 923 538 022  168 220 358
    00002.M2TS      4352 (0x1100)   0x80            LPCM            eng (English)           8991,549                4 614                   5 186 369 300   28 773 200
    00002.M2TS      4353 (0x1101)   0x86            DTS-HD MA       eng (English)           8991,549                9 048                   10 169 662 563  56 671 375
    QUICK SUMMARY:
    Disc Title: The Rolling Stones - Hampton ColiseumDisc Size: 48 991 018 483 bytesProtection: AACSBD-Java: NoPlaylist: 00002.MPLSSize: 48 761 500 992 bytesLength: 2:29:51.816Total Bitrate: 43,38 MbpsVideo: MPEG-4 AVC Video / 27513 kbps / 1080i / 29,970 fps / 16:9 / High Profile 4.1Audio: English / LPCM Audio / 2.0 / 96 kHz / 4608 kbps / 24-bitAudio: English / DTS-HD Master Audio / 5.1 / 96 kHz / 9048 kbps / 24-bit (DTS Core: 5.1 / 48 kHz / 1509 kbps / 24-bit)
    ********************PLAYLIST: 00004.MPLS********************
    Total   Video
    Title                                                           Codec   Length  Movie Size      Disc Size       Bitrate Bitrate Main Audio Track                          Secondary Audio Track
    -----                                                           ------  ------- --------------  --------------  ------- ------- ------------------                        ---------------------
    00004.MPLS                                                      AVC     0:00:21 9 443 328       48 991 018 483  3,59    3,33
    DISC INFO:
    Disc Title:     The Rolling Stones - Hampton Coliseum
    Disc Size:      48 991 018 483 bytes
    Protection:     AACS
    BD-Java:        No
    BDInfo:         0.5.8
    PLAYLIST REPORT:
    Name:                   00004.MPLS
    Length:                 0:00:21.020 (h:m:s.ms)
    Size:                   9 443 328 bytes
    Total Bitrate:          3,59 Mbps
    VIDEO:
    Codec                   Bitrate             Description
    -----                   -------             -----------
    MPEG-4 AVC Video        3327 kbps           1080i / 29,970 fps / 16:9 / High Profile 4.1
    FILES:
    Name            Time In         Length          Size            Total Bitrate
    ----            -------         ------          ----            -------------
    00005.M2TS      0:00:00.000     0:00:10.510     4 841 472       3 685
    00006.M2TS      0:00:10.510     0:00:10.510     4 601 856       3 503
    CHAPTERS:
    Number          Time In         Length          Avg Video Rate  Max 1-Sec Rate  Max 1-Sec Time  Max 5-Sec Rate  Max 5-Sec Time  Max 10Sec Rate  Max 10Sec Time  Avg Frame Size  Max Frame Size  Max Frame Time
    ------          -------         ------          --------------  --------------  --------------  --------------  --------------  --------------  --------------  --------------  --------------  --------------
    1               0:00:00.000     0:00:21.020     3 327 kbps      6 302 kbps      00:00:09.509    3 947 kbps      00:00:06.840    3 597 kbps      00:00:01.701    13 875 bytes    200 073 bytes   00:00:18.918
    STREAM DIAGNOSTICS:
    File            PID             Type            Codec           Language                Seconds                 Bitrate                 Bytes           Packets
    ----            ---             ----            -----           --------                --------------          --------------          -------------   -----
    00005.M2TS      4113 (0x1011)   0x1B            AVC                                     10,410                  3 448                   4 486 469       24 858
    00006.M2TS      4113 (0x1011)   0x1B            AVC                                     10,410                  3 270                   4 254 964       23 596
    QUICK SUMMARY:
    Disc Title: The Rolling Stones - Hampton ColiseumDisc Size: 48 991 018 483 bytesProtection: AACSBD-Java: NoPlaylist: 00004.MPLSSize: 9 443 328 bytesLength: 0:00:21.020Total Bitrate: 3,59 MbpsVideo: MPEG-4 AVC Video / 3327 kbps / 1080i / 29,970 fps / 16:9 / High Profile 4.1
    ********************PLAYLIST: 00003.MPLS********************
    Total   Video
    Title                                                           Codec   Length  Movie Size      Disc Size       Bitrate Bitrate Main Audio Track                          Secondary Audio Track
    -----                                                           ------  ------- --------------  --------------  ------- ------- ------------------                        ---------------------
    00003.MPLS                                                      AVC     0:00:20 44 697 600      48 991 018 483  17,83   15,21   LPCM 2.0 1536Kbps (48kHz/16-bit)
    DISC INFO:
    Disc Title:     The Rolling Stones - Hampton Coliseum
    Disc Size:      48 991 018 483 bytes
    Protection:     AACS
    BD-Java:        No
    BDInfo:         0.5.8
    PLAYLIST REPORT:
    Name:                   00003.MPLS
    Length:                 0:00:20.053 (h:m:s.ms)
    Size:                   44 697 600 bytes
    Total Bitrate:          17,83 Mbps
    VIDEO:
    Codec                   Bitrate             Description
    -----                   -------             -----------
    MPEG-4 AVC Video        15214 kbps          1080i / 29,970 fps / 16:9 / High Profile 4.1
    AUDIO:
    Codec                           Language        Bitrate         Description
    -----                           --------        -------         -----------
    LPCM Audio                      English         1536 kbps       2.0 / 48 kHz / 1536 kbps / 16-bit
    FILES:
    Name            Time In         Length          Size            Total Bitrate
    ----            -------         ------          ----            -------------
    00003.M2TS      0:00:00.000     0:00:20.053     44 697 600      17 831
    CHAPTERS:
    Number          Time In         Length          Avg Video Rate  Max 1-Sec Rate  Max 1-Sec Time  Max 5-Sec Rate  Max 5-Sec Time  Max 10Sec Rate  Max 10Sec Time  Avg Frame Size  Max Frame Size  Max Frame Time
    ------          -------         ------          --------------  --------------  --------------  --------------  --------------  --------------  --------------  --------------  --------------  --------------
    1               0:00:00.000     0:00:20.053     15 214 kbps     32 421 kbps     00:00:08.141    27 674 kbps     00:00:04.771    24 839 kbps     00:00:03.436    63 455 bytes    324 912 bytes   00:00:08.308
    STREAM DIAGNOSTICS:
    File            PID             Type            Codec           Language                Seconds                 Bitrate                 Bytes           Packets
    ----            ---             ----            -----           --------                --------------          --------------          -------------   -----
    00003.M2TS      4113 (0x1011)   0x1B            AVC                                     19,953                  15 290                  38 136 751      208 048
    00003.M2TS      4352 (0x1100)   0x80            LPCM            eng (English)           19,953                  1 549                   3 864 676       24 054
    QUICK SUMMARY:
    Disc Title: The Rolling Stones - Hampton ColiseumDisc Size: 48 991 018 483 bytesProtection: AACSBD-Java: NoPlaylist: 00003.MPLSSize: 44 697 600 bytesLength: 0:00:20.053Total Bitrate: 17,83 MbpsVideo: MPEG-4 AVC Video / 15214 kbps / 1080i / 29,970 fps / 16:9 / High Profile 4.1Audio: English / LPCM Audio / 2.0 / 48 kHz / 1536 kbps / 16-bit

    Скриншоты


    Скачать .torrent

    Скачать торрент-файл бесплатно и на максимальной скорости!

    Как скачивать? · Что такое торрент? · Рейтинг и ограничения

    !ВНИМАНИЕ!
    Сайт не распространяет и не хранит электронные версии произведений, а занимается лишь лишь предоставлением доступа к создаваемому пользователями каталогу ссылок на торрент-файлы, которые содержат только списки хеш-сумм, убедительная просьба с жалобами обращаться напрямую к пользователю. Файлы для обмена на трекере предоставлены пользователями сайта, и администрация не несёт ответственности за их содержание. Просьба не заливать файлы, защищенные авторскими правами, а также файлы нелегального содержания!

    [Профиль] [ЛС]
    Показать сообщения:    
    Ответить на тему

    Текущее время: Сегодня, в 02:03

    Часовой пояс: GMT + 2



    Вы не можете начинать темы
    Вы не можете отвечать на сообщения
    Вы не можете редактировать свои сообщения
    Вы не можете удалять свои сообщения
    Вы не можете голосовать в опросах
    Вы не можете прикреплять файлы к сообщениям
    Вы не можете скачивать файлы