BitTorrentTracker PerecTracker.org
BitTorrentTracker PerecTracker.org
    
Регистрация  ·  Вход
 
 · 
Забыли пароль?

  • (Modern Classical, Electroacoustic, Minimal) [CD] Alvin Lucier - Nothing Is Real... - 2003, FLAC (tracks+.cue), lossless

    Ответить на тему
     
    Автор Сообщение

    Columb

    Создавать темы 24-Ноя-2014 19:43

           

    [Цитировать]

    Alvin Lucier / Nothing Is Real...
    Жанр: Modern Classical, Electroacoustic, Minimal
    Носитель: CD
    Страна-производитель диска: Germany
    Год издания: 2003
    Издатель (лейбл): Wergo
    Номер по каталогу: WER 6660 2
    Страна исполнителя (группы): US
    Аудиокодек: FLAC (*.flac)
    Тип рипа: tracks+.cue
    Битрейт аудио: lossless
    Продолжительность: 59:30
    Источник (релизер): waffles.fm
    Наличие сканов в содержимом раздачи:
    Треклист:
    1 Distant Drums 15:24
    2 Silver Streetcar For The Orchestra 17:29
    3 The Sacred Fox 4:24
    4 Opera With Objects 11:26
    5 Nothing Is Real (Strawberry Fields Forever) 10:31

    Лог создания рипа

    Exact Audio Copy V1.0 beta 3 from 29. August 2011
    EAC extraction logfile from 27. June 2013, 18:05
    Alvin Lucier / Nothing Is Real...
    Used drive : _NEC DVD_RW ND-3540A Adapter: 2 ID: 0
    Read mode : SecureUtilize accurate stream : YesDefeat audio cache : YesMake use of C2 pointers : No
    Read offset correction : 48Overread into Lead-In and Lead-Out : NoFill up missing offset samples with silence : YesDelete leading and trailing silent blocks : NoNull samples used in CRC calculations : YesUsed interface : Native Win32 interface for Win NT & 2000Gap handling : Appended to previous track
    Used output format : User Defined EncoderSelected bitrate : 320 kBit/sQuality : HighAdd ID3 tag : NoCommand line compressor : C:\Program Files (x86)\Exact Audio Copy\Flac\flac.exeAdditional command line options : -V -8 -T "artist=%artist%" -T "title=%title%" -T "album=%albumtitle%" -T "date=%year%" -T "tracknumber=%tracknr%" -T "genre=%genre%" %source%
    TOC of the extracted CD
    Track | Start | Length | Start sector | End sector --------------------------------------------------------- 1 | 0:00.00 | 15:35.39 | 0 | 70163 2 | 15:35.39 | 17:29.14 | 70164 | 148852 3 | 33:04.53 | 4:27.63 | 148853 | 168940 4 | 37:32.41 | 11:25.64 | 168941 | 220379 5 | 48:58.30 | 10:31.08 | 220380 | 267712
    Track 1
    Filename C:\Program Files (x86)\Exact Audio Copy\Secure Rips\Alvin Lucier - 2003 - Nothing Is Real\01 - Distant Drums.wav
    Pre-gap length 0:00:02.00
    Peak level 98.0 % Extraction speed 5.4 X Track quality 100.0 % Test CRC 42361511 Copy CRC 42361511 Track not present in AccurateRip database Copy OK
    Track 2
    Filename C:\Program Files (x86)\Exact Audio Copy\Secure Rips\Alvin Lucier - 2003 - Nothing Is Real\02 - Silver Streetcar for the Orchestra.wav
    Pre-gap length 0:00:11.60
    Peak level 99.8 % Extraction speed 7.0 X Track quality 100.0 % Test CRC CA8E90F7 Copy CRC CA8E90F7 Accurately ripped (confidence 2) [47C15C0D] (AR v1) Copy OK
    Track 3
    Filename C:\Program Files (x86)\Exact Audio Copy\Secure Rips\Alvin Lucier - 2003 - Nothing Is Real\03 - The Sacred Fox.wav
    Peak level 99.7 % Extraction speed 7.0 X Track quality 100.0 % Test CRC E38EED4F Copy CRC E38EED4F Accurately ripped (confidence 2) [3E42F194] (AR v1) Copy OK
    Track 4
    Filename C:\Program Files (x86)\Exact Audio Copy\Secure Rips\Alvin Lucier - 2003 - Nothing Is Real\04 - Opera with Objects.wav
    Pre-gap length 0:00:03.57
    Peak level 92.9 % Extraction speed 8.1 X Track quality 100.0 % Test CRC D22762D9 Copy CRC D22762D9 Accurately ripped (confidence 2) [BF9B45E0] (AR v1) Copy OK
    Track 5
    Filename C:\Program Files (x86)\Exact Audio Copy\Secure Rips\Alvin Lucier - 2003 - Nothing Is Real\05 - Nothing is Real.wav
    Pre-gap length 0:00:09.38
    Peak level 81.0 % Extraction speed 8.7 X Track quality 100.0 % Test CRC 928A9914 Copy CRC 928A9914 Accurately ripped (confidence 2) [7FCD6B68] (AR v1) Copy OK
    4 track(s) accurately ripped 1 track(s) not present in the AccurateRip database
    Some tracks could not be verified as accurate
    No errors occurred
    End of status report
    ==== Log checksum 4CDE825AA65C04312755A7AEFBFACA25FF7938A3CEFC4B555E79705E5EC7AF75 ====

    Содержание индексной карты (.CUE)

    REM GENRE ClassicalREM DATE 2003REM DISCID 490DF105REM COMMENT "ExactAudioCopy v1.0b3"FILE "01 - Distant Drums.wav" WAVE TRACK 01 AUDIO INDEX 01 00:00:00 TRACK 02 AUDIO INDEX 00 15:23:69FILE "02 - Silver Streetcar for the Orchestra.wav" WAVE INDEX 01 00:00:00FILE "03 - The Sacred Fox.wav" WAVE TRACK 03 AUDIO INDEX 01 00:00:00 TRACK 04 AUDIO INDEX 00 04:24:20FILE "04 - Opera with Objects.wav" WAVE INDEX 01 00:00:00 TRACK 05 AUDIO INDEX 00 11:16:35FILE "05 - Nothing is Real.wav" WAVE INDEX 01 00:00:00

    Лог проверки качества

    d:\>d:\aucdtect -d/-m0 d:\zzz\*.wavauCDtect: CD records authenticity detector, version 0.8.2Copyright (c) 2004 Oleg Berngardt. All rights reserved.Copyright (c) 2004 Alexander Djourik. All rights reserved.------------------------------------------------------------Processing file: [01. Distant Drums.wav]
    ------------------------------------------------------------This track looks like CDDA with probability 100%
    ------------------------------------------------------------Processing file: [02. Silver Streetcar for the Orchestra.wav]
    ------------------------------------------------------------Could not qualify the source of this track.
    ------------------------------------------------------------Processing file: [03. The Sacred Fox.wav]
    ------------------------------------------------------------This track looks like CDDA with probability 100%
    ------------------------------------------------------------Processing file: [04. Opera With Objects.wav]
    ------------------------------------------------------------This track looks like CDDA with probability 100%
    ------------------------------------------------------------Processing file: [05. Nothing Is Real (Strawberry Fields Forever).wav]
    ------------------------------------------------------------This track looks like CDDA with probability 100%
    ------------------------------------------------------------Final Conclusion:------------------------------------------------------------These tracks looks like CDDA with probability 100%
    Доп. информация:

    AMG Review

    Acclaimed for his focused study of acoustics, I Am Sitting in a Room (1970), Alvin Lucier has continued to work with raw sounds and their resonances in a variety of challenging experiments, which can only be described as sui generis. Indeed, so important to Lucier is William Carlos Williams' dictum, "No ideas but in things," that things themselves (musical instruments, everyday appurtenances, found materials, etc.) suggest the occasions for their use and provide the content and forms to be employed. With versatile avant-garde percussionist Mattias Kaul performing on amplified percussion, piano, and other resonant objects, Lucier is able to draw out the characteristic sonorities of items and create soundscapes that sometimes resemble ambient music in overall effect. Not so in the clangorous Silver Streetcar for the Orchestra for amplified triangle (1988) or the disturbing vocalizations and clacking sounds of The Sacred Fox (1994), both of which should be played at a fairly low volume to avoid discomfort. But most of Lucier's pieces are gentle and mysteriously soothing while at the same time thought-provoking and perhaps even moving. Nothing Is Real (Strawberry Fields Forever) for piano, amplified teapot, tape recorder, and miniature sound system (1990) warrants attention for its well-known source material and unusual audio manipulation, but also for its haunting delicacy. Wergo's sound is terrific.

    Состав

    Composed By – Alvin Lucier
    Percussion, Voice, Piano, Mastered By – Matthias Kaul
    Recorded 12-14 March 2001, at Sendesaal (track 1 to 3, 5), Studio M113 (track 4), Frankfurt am Main.
    Скачать .torrent

    Скачать торрент-файл бесплатно и на максимальной скорости!

    Как скачивать? · Что такое торрент? · Рейтинг и ограничения

    !ВНИМАНИЕ!
    Сайт не распространяет и не хранит электронные версии произведений, а занимается лишь лишь предоставлением доступа к создаваемому пользователями каталогу ссылок на торрент-файлы, которые содержат только списки хеш-сумм, убедительная просьба с жалобами обращаться напрямую к пользователю. Файлы для обмена на трекере предоставлены пользователями сайта, и администрация не несёт ответственности за их содержание. Просьба не заливать файлы, защищенные авторскими правами, а также файлы нелегального содержания!

    [Профиль] [ЛС]
    Показать сообщения:    
    Ответить на тему

    Текущее время: Сегодня, в 10:03

    Часовой пояс: GMT + 2



    Вы не можете начинать темы
    Вы не можете отвечать на сообщения
    Вы не можете редактировать свои сообщения
    Вы не можете удалять свои сообщения
    Вы не можете голосовать в опросах
    Вы не можете прикреплять файлы к сообщениям
    Вы не можете скачивать файлы