BitTorrentTracker PerecTracker.org
BitTorrentTracker PerecTracker.org
    
Регистрация  ·  Вход
 
 · 
Забыли пароль?

  • (Power Electronics, Noise) [CDR] Syndikhat - Folkmord - 2001, FLAC (image+.cue), lossless

    Ответить на тему
     
    Автор Сообщение

    Columb

    Создавать темы 24-Ноя-2014 19:40

           

    [Цитировать]

    Syndikhat / Folkmord
    Жанр: Power Electronics, Noise
    Носитель: CDR
    Страна-производитель диска: Poland
    Год издания: 2001
    Издатель (лейбл): Soulworm Editions
    Номер по каталогу: Worm XIII
    Страна исполнителя (группы): Sweden
    Аудиокодек: FLAC (*.flac)
    Тип рипа: image+.cue
    Битрейт аудио: lossless
    Продолжительность: 18:53
    Источник (релизер): G.R.K.
    Наличие сканов в содержимом раздачи: да
    Треклист:
    01. Folkmord Kapitel I (6:22)
    02. Untitled (0:22)
    03. Folkmord Kapitel II (5:22)
    04. Untitled (0:29)
    05. Folkmord Kapitel III (5:36)
    06. Untitled (0:43)

    Лог создания рипа

    Exact Audio Copy V1.0 beta 3 from 29. August 2011
    EAC extraction logfile from 11. September 2014, 21:51
    Syndikhat / Folkmord
    Used drive : Optiarc DVD RW AD-7585H Adapter: 1 ID: 0
    Read mode : SecureUtilize accurate stream : YesDefeat audio cache : YesMake use of C2 pointers : No
    Read offset correction : 6Overread into Lead-In and Lead-Out : NoFill up missing offset samples with silence : YesDelete leading and trailing silent blocks : NoNull samples used in CRC calculations : YesUsed interface : Native Win32 interface for Win NT & 2000
    Used output format : User Defined EncoderSelected bitrate : 1024 kBit/sQuality : HighAdd ID3 tag : NoCommand line compressor : C:\Program Files (x86)\Exact Audio Copy\Flac\flac.exeAdditional command line options : -V -8 -T "Date=%year%" -T "Genre=%genre%" %source%
    TOC of the extracted CD
    Track | Start | Length | Start sector | End sector --------------------------------------------------------- 1 | 0:00.00 | 6:22.00 | 0 | 28649 2 | 6:22.00 | 0:21.53 | 28650 | 30277 3 | 6:43.53 | 5:21.60 | 30278 | 54412 4 | 12:05.38 | 0:28.61 | 54413 | 56573 5 | 12:34.24 | 5:35.63 | 56574 | 81761 6 | 18:10.12 | 0:43.02 | 81762 | 84988
    Range status and errors
    Selected range
    Filename D:\CD rip\G.R.K. [rutracker.org]\Syndikhat - 2001 - Folkmord\Syndikhat - Folkmord.wav
    Peak level 100.0 % Extraction speed 2.5 X Range quality 100.0 % Test CRC 6CF7A66F Copy CRC 6CF7A66F Copy OK
    No errors occurred
    AccurateRip summary
    Track 1 not present in databaseTrack 2 not present in databaseTrack 3 not present in databaseTrack 4 not present in databaseTrack 5 not present in databaseTrack 6 not present in database
    None of the tracks are present in the AccurateRip database
    End of status report
    ---- CUETools DB Plugin V2.1.3
    [CTDB TOCID: 6V17WGfkVbtHxk4ddzvR0.WONA4-] disk not present in database, Submit result: 6V17WGfkVbtHxk4ddzvR0.WONA4- has been uploaded
    ==== Log checksum F9C3C3C4E01BC861C3E810DAA6C7FF3ED7A456E6725E273EA291BBD60CC5D0F8 ====

    Рецензия

    Третий релиз земляков шведов, изданный польским лейблом, я сравню с проектом FOLKSTORM из земляка г-на Nordvargr. На то есть - помимо географических - и другие, не менее объективные причины.
    Первая. Оба проекта утаптывали скользкую тропу постиндустриальной электронной музыки с праворадикальным душком, ухитряясь одновременно ратовать за политкорректность. Henrik Bjorkk, например, не уставал утверждать, что сэмплы с речами нацистов он использует исключительно для погружения слушателя в исторический контекст, своего рода шоковая герменевтика. О своей непричастности заявляют и анонимные авторы SYNDIKHAT'a, с той лишь разницей, что оправдывают недвусмысленные тексты и изображения парней в балахонах Ku Klux Klan эстетической концепцией, ими выстраданной.
    Вторая. И FOLKSTORM, и наши сегодняшние герои производили неинтересный, преимущественно цифровой, noise/power-electronics, с обильным заимствованием традиционной народной мелодики. На мини-альбоме "Folkmord" практически в каждом из шести треков мы сталкиваемся с доминирующими минорными хоралами, приправленными абразивом, воинственными призывами, лязгом танковых траков и т.п. Следует отметить, что именно на "уникальное сочетание хоралов и noise" и напирал пресс-релиз Soulworm ed.
    Последняя причина. И FOLKSTORM, и SYNDIKHAT был отмерян недолгий срок. Что, впрочем, неудивительно. Явления, рождённые к жизни конъюнктурой, сходят на "нет" вместе с веяниями, их породившими. За пять лет индустриальный народ в большинстве своем наелся политически ангажированного шума, и проекты, его поставлявшие, один за другим приказали долго жить. Разница заключается лишь в том, что Nordvargr сумел воспользоваться моментом и подзаработать (не важно: денег или репутацию) на этом, а вот его менее удачливым землякам - не удалось.
    Скучный продукт мертвого лейбла.
    http://machine.radionoise.ru/reviews/syndikhat.html
    Скачать .torrent

    Скачать торрент-файл бесплатно и на максимальной скорости!

    Как скачивать? · Что такое торрент? · Рейтинг и ограничения

    !ВНИМАНИЕ!
    Сайт не распространяет и не хранит электронные версии произведений, а занимается лишь лишь предоставлением доступа к создаваемому пользователями каталогу ссылок на торрент-файлы, которые содержат только списки хеш-сумм, убедительная просьба с жалобами обращаться напрямую к пользователю. Файлы для обмена на трекере предоставлены пользователями сайта, и администрация не несёт ответственности за их содержание. Просьба не заливать файлы, защищенные авторскими правами, а также файлы нелегального содержания!

    [Профиль] [ЛС]
    Показать сообщения:    
    Ответить на тему

    Текущее время: Сегодня, в 16:17

    Часовой пояс: GMT + 2



    Вы не можете начинать темы
    Вы не можете отвечать на сообщения
    Вы не можете редактировать свои сообщения
    Вы не можете удалять свои сообщения
    Вы не можете голосовать в опросах
    Вы не можете прикреплять файлы к сообщениям
    Вы не можете скачивать файлы