BitTorrentTracker PerecTracker.org
BitTorrentTracker PerecTracker.org
    
Регистрация  ·  Вход
 
 · 
Забыли пароль?

  • (Martial Industrial, Marches) [CDR] Striider - Voorwaarts! - 2011, FLAC (image+.cue), lossless

    Ответить на тему
     
    Автор Сообщение

    Columb

    Создавать темы 24-Ноя-2014 19:39

           

    [Цитировать]

    Striider / Voorwaarts!
    Жанр: Martial Industrial, Marches
    Носитель: CDR
    Страна-производитель диска: Germany
    Год издания: 2011
    Издатель (лейбл): SkullLine
    Номер по каталогу: SLCDR117-11
    Страна исполнителя (группы): Netherlands
    Аудиокодек: FLAC (*.flac)
    Тип рипа: image+.cue
    Битрейт аудио: lossless
    Продолжительность: 55:07
    Источник (релизер): G.R.K.
    Наличие сканов в содержимом раздачи: да
    Треклист:
    01. Casus Belli (1:29)
    02. D.A.K. (5:03)
    03. (Somewhere Near) Breslau (5:40)
    04. Lili (3:40)
    05. Macht Euch Bereit! (3:22)
    06. Sanitater! (4:12)
    07. Modder En Bloed (3:36)
    08. Ostfront (10:14)
    09. Kampfen Und Tanzen (6:17)
    10. Les Enfants De La Guerre (4:18)
    11. Voorwaarts! (3:19)
    12. Houdt Het Dan Nooit Op?! (2:17)
    13. We'll Meet Again (1:40)

    Лог создания рипа

    Exact Audio Copy V1.0 beta 3 from 29. August 2011
    EAC extraction logfile from 12. September 2014, 0:46
    Striider / Voorwaarts
    Used drive : Optiarc DVD RW AD-7585H Adapter: 1 ID: 0
    Read mode : SecureUtilize accurate stream : YesDefeat audio cache : YesMake use of C2 pointers : No
    Read offset correction : 6Overread into Lead-In and Lead-Out : NoFill up missing offset samples with silence : YesDelete leading and trailing silent blocks : NoNull samples used in CRC calculations : YesUsed interface : Native Win32 interface for Win NT & 2000
    Used output format : User Defined EncoderSelected bitrate : 1024 kBit/sQuality : HighAdd ID3 tag : NoCommand line compressor : C:\Program Files (x86)\Exact Audio Copy\Flac\flac.exeAdditional command line options : -V -8 -T "Date=%year%" -T "Genre=%genre%" %source%
    TOC of the extracted CD
    Track | Start | Length | Start sector | End sector --------------------------------------------------------- 1 | 0:00.00 | 1:28.41 | 0 | 6640 2 | 1:28.41 | 5:02.38 | 6641 | 29328 3 | 6:31.04 | 5:40.00 | 29329 | 54828 4 | 12:11.04 | 3:40.00 | 54829 | 71328 5 | 15:51.04 | 3:21.55 | 71329 | 86458 6 | 19:12.59 | 4:12.11 | 86459 | 105369 7 | 23:24.70 | 3:36.17 | 105370 | 121586 8 | 27:01.12 | 10:13.39 | 121587 | 167600 9 | 37:14.51 | 6:17.34 | 167601 | 195909 10 | 43:32.10 | 4:18.16 | 195910 | 215275 11 | 47:50.26 | 3:19.35 | 215276 | 230235 12 | 51:09.61 | 2:17.06 | 230236 | 240516 13 | 53:26.67 | 1:40.21 | 240517 | 248037
    Range status and errors
    Selected range
    Filename D:\CD rip\G.R.K. [rutracker.org]\Striider - 2011 - Voorwaarts\Striider - Voorwaarts.wav
    Peak level 100.0 % Extraction speed 3.1 X Range quality 100.0 % Test CRC 7A6D998D Copy CRC 7A6D998D Copy OK
    No errors occurred
    AccurateRip summary
    Track 1 cannot be verified as accurate (confidence 1) [85F1819F], AccurateRip returned [2246C9A3] (AR v2)Track 2 cannot be verified as accurate (confidence 1) [FA8CC235], AccurateRip returned [317F2F44] (AR v2)Track 3 cannot be verified as accurate (confidence 1) [70715723], AccurateRip returned [240C9105] (AR v2)Track 4 cannot be verified as accurate (confidence 1) [010D33D2], AccurateRip returned [9AA94AB5] (AR v2)Track 5 cannot be verified as accurate (confidence 1) [6D857E5F], AccurateRip returned [77358D45] (AR v2)Track 6 cannot be verified as accurate (confidence 1) [8D75B381], AccurateRip returned [D7FD81CD] (AR v2)Track 7 cannot be verified as accurate (confidence 1) [7E24BBC2], AccurateRip returned [00C6DE01] (AR v2)Track 8 cannot be verified as accurate (confidence 1) [5A1CFFF0], AccurateRip returned [8D155AAB] (AR v2)Track 9 cannot be verified as accurate (confidence 1) [7C54D90A], AccurateRip returned [3FFCCCC3] (AR v2)Track 10 cannot be verified as accurate (confidence 1) [B26B3797], AccurateRip returned [3F3B0236] (AR v2)Track 11 cannot be verified as accurate (confidence 1) [A99F2CA4], AccurateRip returned [1F835CFA] (AR v2)Track 12 cannot be verified as accurate (confidence 1) [7AA7F45D], AccurateRip returned [5DC8E406] (AR v2)Track 13 cannot be verified as accurate (confidence 1) [52191897], AccurateRip returned [71C3E46C] (AR v2)
    No tracks could be verified as accurateYou may have a different pressing from the one(s) in the database
    End of status report
    ---- CUETools DB Plugin V2.1.3
    [CTDB TOCID: pkDSlWXJ9b_Vioatm4lFXB031iY-] disk not present in database, Submit result: pkDSlWXJ9b_Vioatm4lFXB031iY- has been uploaded
    ==== Log checksum 9C29A785B4AE9E81F5FF2E8433000F3F56A3DB964BEF116F42C2D9DD76E6C2C0 ====
    Скачать .torrent

    Скачать торрент-файл бесплатно и на максимальной скорости!

    Как скачивать? · Что такое торрент? · Рейтинг и ограничения

    !ВНИМАНИЕ!
    Сайт не распространяет и не хранит электронные версии произведений, а занимается лишь лишь предоставлением доступа к создаваемому пользователями каталогу ссылок на торрент-файлы, которые содержат только списки хеш-сумм, убедительная просьба с жалобами обращаться напрямую к пользователю. Файлы для обмена на трекере предоставлены пользователями сайта, и администрация не несёт ответственности за их содержание. Просьба не заливать файлы, защищенные авторскими правами, а также файлы нелегального содержания!

    [Профиль] [ЛС]
    Показать сообщения:    
    Ответить на тему

    Текущее время: Сегодня, в 22:27

    Часовой пояс: GMT + 2



    Вы не можете начинать темы
    Вы не можете отвечать на сообщения
    Вы не можете редактировать свои сообщения
    Вы не можете удалять свои сообщения
    Вы не можете голосовать в опросах
    Вы не можете прикреплять файлы к сообщениям
    Вы не можете скачивать файлы