BitTorrentTracker PerecTracker.org
BitTorrentTracker PerecTracker.org
    
Регистрация  ·  Вход
 
 · 
Забыли пароль?

  • (Dark Ambient, Industrial) [CDR] Remete - Hamvaim - 2014, FLAC (image+.cue), lossless

    Ответить на тему
     
    Автор Сообщение

    Columb

    Создавать темы 24-Ноя-2014 19:38

           

    [Цитировать]

    Remete / Hamvaim
    Жанр: Dark Ambient, Industrial
    Носитель: CDR
    Страна-производитель диска: Germany
    Год издания: 2014
    Издатель (лейбл): Castellum Stoufenburc
    Номер по каталогу: CS 04-14
    Страна исполнителя (группы): Hungary
    Аудиокодек: FLAC (*.flac)
    Тип рипа: image+.cue
    Битрейт аудио: lossless
    Продолжительность: 22:28
    Источник (релизер): G.R.K.
    Наличие сканов в содержимом раздачи: да
    Треклист:
    01. Mare Crisium (4:08)
    02. Elhagyatva (6:21)
    03. Poklok Kapui (5:55)
    04. Hamvaim (6:04)

    Лог создания рипа

    Exact Audio Copy V1.0 beta 3 from 29. August 2011
    EAC extraction logfile from 2. September 2014, 13:03
    Remete / Hamvaim
    Used drive : Optiarc DVD RW AD-7585H Adapter: 1 ID: 0
    Read mode : SecureUtilize accurate stream : YesDefeat audio cache : YesMake use of C2 pointers : No
    Read offset correction : 6Overread into Lead-In and Lead-Out : NoFill up missing offset samples with silence : YesDelete leading and trailing silent blocks : NoNull samples used in CRC calculations : YesUsed interface : Native Win32 interface for Win NT & 2000
    Used output format : User Defined EncoderSelected bitrate : 1024 kBit/sQuality : HighAdd ID3 tag : NoCommand line compressor : C:\Program Files (x86)\Exact Audio Copy\Flac\flac.exeAdditional command line options : -V -8 -T "Date=%year%" -T "Genre=%genre%" %source%
    TOC of the extracted CD
    Track | Start | Length | Start sector | End sector --------------------------------------------------------- 1 | 0:00.00 | 4:07.71 | 0 | 18595 2 | 4:07.71 | 6:21.26 | 18596 | 47196 3 | 10:29.22 | 5:54.49 | 47197 | 73795 4 | 16:23.71 | 6:04.19 | 73796 | 101114
    Range status and errors
    Selected range
    Filename D:\CD rip\Remete - 2014 - Hamvaim [FLAC]\Remete - Hamvaim.wav
    Peak level 99.9 % Extraction speed 2.6 X Range quality 100.0 % Test CRC BC860267 Copy CRC BC860267 Copy OK
    No errors occurred
    AccurateRip summary
    Track 1 not present in databaseTrack 2 not present in databaseTrack 3 not present in databaseTrack 4 not present in database
    None of the tracks are present in the AccurateRip database
    End of status report
    ---- CUETools DB Plugin V2.1.3
    [CTDB TOCID: 2lMVzQ1UcXxclyiLiweBh2X6_EU-] database access error: Невозможно разрешить удаленное имя: 'db.cuetools.net'
    ==== Log checksum 4DE65D5B4FD401B038B38427AB30399B3F5DEE3C0AA53167BF9840701CE9AA86 ====
    Janos Madura, также известный по проектам Our God weeps, Zebaoth, Kriegsfall-U представляет свое новое детище: Remete.
    Intense & deep Dark Ambient with Martial Industrial elements.
    Скачать .torrent

    Скачать торрент-файл бесплатно и на максимальной скорости!

    Как скачивать? · Что такое торрент? · Рейтинг и ограничения

    !ВНИМАНИЕ!
    Сайт не распространяет и не хранит электронные версии произведений, а занимается лишь лишь предоставлением доступа к создаваемому пользователями каталогу ссылок на торрент-файлы, которые содержат только списки хеш-сумм, убедительная просьба с жалобами обращаться напрямую к пользователю. Файлы для обмена на трекере предоставлены пользователями сайта, и администрация не несёт ответственности за их содержание. Просьба не заливать файлы, защищенные авторскими правами, а также файлы нелегального содержания!

    [Профиль] [ЛС]
    Показать сообщения:    
    Ответить на тему

    Текущее время: Сегодня, в 23:16

    Часовой пояс: GMT + 2



    Вы не можете начинать темы
    Вы не можете отвечать на сообщения
    Вы не можете редактировать свои сообщения
    Вы не можете удалять свои сообщения
    Вы не можете голосовать в опросах
    Вы не можете прикреплять файлы к сообщениям
    Вы не можете скачивать файлы