BitTorrentTracker PerecTracker.org
BitTorrentTracker PerecTracker.org
    
Регистрация  ·  Вход
 
 · 
Забыли пароль?

  • (Power Electronics) [CDR] Masked Diode - Masked Diode - 2006, FLAC (image+.cue), lossless

    Ответить на тему
     
    Автор Сообщение

    Columb

    Создавать темы 24-Ноя-2014 19:38

           

    [Цитировать]

    Masked Diode / Masked Diode
    Жанр: Power Electronics
    Носитель: CDR
    Страна-производитель диска: Germany
    Год издания: 2006
    Издатель (лейбл): L. White Records
    Номер по каталогу: LW-042
    Страна исполнителя (группы): Japan
    Аудиокодек: FLAC (*.flac)
    Тип рипа: image+.cue
    Битрейт аудио: lossless
    Продолжительность: 14:36
    Источник (релизер): G.R.K.
    Наличие сканов в содержимом раздачи: да
    Треклист:
    01. Guerrilla Ikusei (4:06)
    02. Shido (2:31)
    03. Homobyakusho No Harakiri (3:34)
    04. D-2 (4:26)

    Лог создания рипа

    Exact Audio Copy V1.0 beta 3 from 29. August 2011
    EAC extraction logfile from 15. September 2014, 1:04
    Masked Diode / Masked Diode
    Used drive : Optiarc DVD RW AD-7585H Adapter: 1 ID: 0
    Read mode : SecureUtilize accurate stream : YesDefeat audio cache : YesMake use of C2 pointers : No
    Read offset correction : 6Overread into Lead-In and Lead-Out : NoFill up missing offset samples with silence : YesDelete leading and trailing silent blocks : NoNull samples used in CRC calculations : YesUsed interface : Native Win32 interface for Win NT & 2000
    Used output format : User Defined EncoderSelected bitrate : 1024 kBit/sQuality : HighAdd ID3 tag : NoCommand line compressor : C:\Program Files (x86)\Exact Audio Copy\Flac\flac.exeAdditional command line options : -V -8 -T "Date=%year%" -T "Genre=%genre%" %source%
    TOC of the extracted CD
    Track | Start | Length | Start sector | End sector --------------------------------------------------------- 1 | 0:00.00 | 4:05.44 | 0 | 18418 2 | 4:05.44 | 2:31.04 | 18419 | 29747 3 | 6:36.48 | 3:33.46 | 29748 | 45768 4 | 10:10.19 | 4:26.23 | 45769 | 65741
    Range status and errors
    Selected range
    Filename D:\CD rip\G.R.K. [rutracker.org]\Masked Diode - 2006 - Masked Diode\Masked Diode - Masked Diode.wav
    Peak level 100.0 % Extraction speed 2.4 X Range quality 100.0 % Test CRC 7DECF037 Copy CRC 7DECF037 Copy OK
    No errors occurred
    AccurateRip summary
    Track 1 accurately ripped (confidence 1) [9D28ED57] (AR v1)Track 2 accurately ripped (confidence 1) [C7B9B6CC] (AR v1)Track 3 accurately ripped (confidence 1) [1A5F7819] (AR v1)Track 4 accurately ripped (confidence 1) [31D702A4] (AR v1)
    All tracks accurately ripped
    End of status report
    ---- CUETools DB Plugin V2.1.3
    [CTDB TOCID: cXTohGmwXezsZD4EuoNxLCcYAXs-] disk not present in database, Submit result: cXTohGmwXezsZD4EuoNxLCcYAXs- has been uploaded
    ==== Log checksum 0A8CF08671D8AA45C8EB0FCCEEE95AA06C8C3D6914B38442231A5C6BE7917992 ====
    Скачать .torrent

    Скачать торрент-файл бесплатно и на максимальной скорости!

    Как скачивать? · Что такое торрент? · Рейтинг и ограничения

    !ВНИМАНИЕ!
    Сайт не распространяет и не хранит электронные версии произведений, а занимается лишь лишь предоставлением доступа к создаваемому пользователями каталогу ссылок на торрент-файлы, которые содержат только списки хеш-сумм, убедительная просьба с жалобами обращаться напрямую к пользователю. Файлы для обмена на трекере предоставлены пользователями сайта, и администрация не несёт ответственности за их содержание. Просьба не заливать файлы, защищенные авторскими правами, а также файлы нелегального содержания!

    [Профиль] [ЛС]
    Показать сообщения:    
    Ответить на тему

    Текущее время: Сегодня, в 16:19

    Часовой пояс: GMT + 2



    Вы не можете начинать темы
    Вы не можете отвечать на сообщения
    Вы не можете редактировать свои сообщения
    Вы не можете удалять свои сообщения
    Вы не можете голосовать в опросах
    Вы не можете прикреплять файлы к сообщениям
    Вы не можете скачивать файлы