BitTorrentTracker PerecTracker.org
BitTorrentTracker PerecTracker.org
    
Регистрация  ·  Вход
 
 · 
Забыли пароль?

  • (Military, Modern Classical, Dark Ambient) [CD] La Derniere Attaque - 8eme Regiment De Grenadiers - 2012, FLAC (image+.cue), lossless

    Ответить на тему
     
    Автор Сообщение

    Columb

    Создавать темы 24-Ноя-2014 19:37

           

    [Цитировать]

    La Derniere Attaque / 8eme Regiment De Grenadiers
    Жанр: Military, Modern Classical, Dark Ambient
    Носитель: CDr
    Страна-производитель диска: Germany
    Год издания: 2012
    Издатель (лейбл): SkullLine
    Номер по каталогу: SLCDR146-12
    Страна исполнителя (группы): Mexico
    Аудиокодек: FLAC (*.flac)
    Тип рипа: image+.cue
    Битрейт аудио: lossless
    Продолжительность: 45:54
    Источник (релизер): G.R.K.
    Наличие сканов в содержимом раздачи: да
    Треклист:
    01. Like Blank Ocean (4:26)
    02. A La Gloria Militar (4:02)
    03. Regiment (4:52)
    04. Susana (2:54)
    05. Le Volontaire (2:06)
    06. Under The Shade (7:06)
    07. Josephine (3:22)
    08. Le Chant Du Depart (4:22)
    09. Borodino (6:38)
    10. Champs D'Honneur (1:36)
    11. Jeux (2:08)
    12. Prussian March (2:22)

    Лог создания рипа

    Exact Audio Copy V1.0 beta 3 from 29. August 2011
    EAC extraction logfile from 12. September 2014, 2:45
    La Derniere Attaque / 8eme Regiment De Grenadiers
    Used drive : Optiarc DVD RW AD-7585H Adapter: 1 ID: 0
    Read mode : SecureUtilize accurate stream : YesDefeat audio cache : YesMake use of C2 pointers : No
    Read offset correction : 6Overread into Lead-In and Lead-Out : NoFill up missing offset samples with silence : YesDelete leading and trailing silent blocks : NoNull samples used in CRC calculations : YesUsed interface : Native Win32 interface for Win NT & 2000
    Used output format : User Defined EncoderSelected bitrate : 1024 kBit/sQuality : HighAdd ID3 tag : NoCommand line compressor : C:\Program Files (x86)\Exact Audio Copy\Flac\flac.exeAdditional command line options : -V -8 -T "Date=%year%" -T "Genre=%genre%" %source%
    TOC of the extracted CD
    Track | Start | Length | Start sector | End sector --------------------------------------------------------- 1 | 0:00.00 | 4:26.00 | 0 | 19949 2 | 4:26.00 | 4:02.00 | 19950 | 38099 3 | 8:28.00 | 4:52.00 | 38100 | 59999 4 | 13:20.00 | 2:54.00 | 60000 | 73049 5 | 16:14.00 | 2:06.00 | 73050 | 82499 6 | 18:20.00 | 7:06.00 | 82500 | 114449 7 | 25:26.00 | 3:22.00 | 114450 | 129599 8 | 28:48.00 | 4:22.00 | 129600 | 149249 9 | 33:10.00 | 6:38.00 | 149250 | 179099 10 | 39:48.00 | 1:36.00 | 179100 | 186299 11 | 41:24.00 | 2:08.00 | 186300 | 195899 12 | 43:32.00 | 2:22.00 | 195900 | 206549
    Range status and errors
    Selected range
    Filename D:\CD rip\G.R.K. [rutracker.org]\La Derniere Attaque - 2012 - 8eme Regiment De Grenadiers\La Derniere Attaque - 8eme Regiment De Grenadiers.wav
    Peak level 100.0 % Extraction speed 3.0 X Range quality 100.0 % Test CRC B1C3F524 Copy CRC B1C3F524 Copy OK
    No errors occurred
    AccurateRip summary
    Track 1 not present in databaseTrack 2 not present in databaseTrack 3 not present in databaseTrack 4 not present in databaseTrack 5 not present in databaseTrack 6 not present in databaseTrack 7 not present in databaseTrack 8 not present in databaseTrack 9 not present in databaseTrack 10 not present in databaseTrack 11 not present in databaseTrack 12 not present in database
    None of the tracks are present in the AccurateRip database
    End of status report
    ---- CUETools DB Plugin V2.1.3
    [CTDB TOCID: 8EPxpvSEpdjn0fr6a9oxWK_xNvk-] disk not present in database, Submit result: 8EPxpvSEpdjn0fr6a9oxWK_xNvk- has been uploaded
    ==== Log checksum 06F1E12BC916AD95EFC9E82109DA4266717FC1C04EE62EA488DC72AE6A18022A ====
    Скачать .torrent

    Скачать торрент-файл бесплатно и на максимальной скорости!

    Как скачивать? · Что такое торрент? · Рейтинг и ограничения

    !ВНИМАНИЕ!
    Сайт не распространяет и не хранит электронные версии произведений, а занимается лишь лишь предоставлением доступа к создаваемому пользователями каталогу ссылок на торрент-файлы, которые содержат только списки хеш-сумм, убедительная просьба с жалобами обращаться напрямую к пользователю. Файлы для обмена на трекере предоставлены пользователями сайта, и администрация не несёт ответственности за их содержание. Просьба не заливать файлы, защищенные авторскими правами, а также файлы нелегального содержания!

    [Профиль] [ЛС]
    Показать сообщения:    
    Ответить на тему

    Текущее время: Сегодня, в 17:59

    Часовой пояс: GMT + 2



    Вы не можете начинать темы
    Вы не можете отвечать на сообщения
    Вы не можете редактировать свои сообщения
    Вы не можете удалять свои сообщения
    Вы не можете голосовать в опросах
    Вы не можете прикреплять файлы к сообщениям
    Вы не можете скачивать файлы