Register  ·  Log in
Forgot password?

  • (Power Electronics, Industrial) [CDR] Halthan - Collapse In Progress - 2006, FLAC (image+.cue), lossless

    Reply to topic
    Author Message


    Post 24-Nov-2014 20:36



    Halthan / Collapse In Progress
    Жанр: Power Electronics, Industrial
    Носитель: CDR
    Страна-производитель диска: Germany
    Год издания: 2006
    Издатель (лейбл): L. White Records
    Номер по каталогу: LW-034
    Страна исполнителя (группы): Finland
    Аудиокодек: FLAC (*.flac)
    Тип рипа: image+.cue
    Битрейт аудио: lossless
    Продолжительность: 21:42
    Источник (релизер): G.R.K.
    Наличие сканов в содержимом раздачи: да
    01. Mission For Purity (5:42)
    02. Every Citizen's Duty (5:20)
    03. Paralyze/Paradise (4:42)
    04. Bloody Empire (5:59)

    Лог создания рипа

    Exact Audio Copy V1.0 beta 3 from 29. August 2011
    EAC extraction logfile from 15. September 2014, 1:28
    Halthan / Collapse In Progress
    Used drive : Optiarc DVD RW AD-7585H Adapter: 1 ID: 0
    Read mode : SecureUtilize accurate stream : YesDefeat audio cache : YesMake use of C2 pointers : No
    Read offset correction : 6Overread into Lead-In and Lead-Out : NoFill up missing offset samples with silence : YesDelete leading and trailing silent blocks : NoNull samples used in CRC calculations : YesUsed interface : Native Win32 interface for Win NT & 2000
    Used output format : User Defined EncoderSelected bitrate : 1024 kBit/sQuality : HighAdd ID3 tag : NoCommand line compressor : C:\Program Files (x86)\Exact Audio Copy\Flac\flac.exeAdditional command line options : -V -8 -T "Date=%year%" -T "Genre=%genre%" %source%
    TOC of the extracted CD
    Track | Start | Length | Start sector | End sector --------------------------------------------------------- 1 | 0:00.00 | 5:42.09 | 0 | 25658 2 | 5:42.09 | 5:19.69 | 25659 | 49652 3 | 11:02.03 | 4:41.42 | 49653 | 70769 4 | 15:43.45 | 5:59.00 | 70770 | 97694
    Range status and errors
    Selected range
    Filename D:\CD rip\G.R.K. []\Halthan - 2006 - Collapse In Progress\Halthan - Collapse In Progress.wav
    Peak level 59.5 % Extraction speed 2.6 X Range quality 100.0 % Test CRC F8CC3D9B Copy CRC F8CC3D9B Copy OK
    No errors occurred
    AccurateRip summary
    Track 1 accurately ripped (confidence 1) [3F3B018F] (AR v2)Track 2 accurately ripped (confidence 1) [1B1B5772] (AR v2)Track 3 accurately ripped (confidence 1) [AFB61A32] (AR v2)Track 4 accurately ripped (confidence 1) [912DE94B] (AR v2)
    All tracks accurately ripped
    End of status report
    ---- CUETools DB Plugin V2.1.3
    [CTDB TOCID: fqVG1UpINw2VV0M1mhYzM0y2tVg-] disk not present in database, Submit result: fqVG1UpINw2VV0M1mhYzM0y2tVg- has been uploaded
    ==== Log checksum 12A668D9FA64DC2D9E7FCD63B1211BEEAF3A5F7190AB2C65012C7CAD699FE699 ====
    Download .torrent

    Download free and at maximum speed!

    How to Download? · What is a torrent? · Ratings and Limitations

    The site does not extend and does not store electronic(digital) versions of products, and only gives access to a reference catalogue created by users on torrent-files which contain only lists of the hash-sums, the earnest entreaty, with complaints(abuse) to access directly to the user. Files for an exchange on tracker are given by users of a site, and the administration does not bear the responsibility for their maintenance. The request to not fill in the files protected by copyrights, and also files of the illegal maintenance!

    [Profile] [PM]
    Display posts from previous:    
    Reply to topic

    The time now is: Today 08:23

    All times are GMT + 3 Hours

    You cannot post new topics in this forum
    You cannot reply to topics in this forum
    You cannot edit your posts in this forum
    You cannot delete your posts in this forum
    You cannot vote in polls in this forum
    You cannot attach files in this forum
    You cannot download files in this forum