BitTorrentTracker PerecTracker.org
BitTorrentTracker PerecTracker.org
    
Регистрация  ·  Вход
 
 · 
Забыли пароль?

  • (Military, Modern Classical, Industrial) [CDR] Das Brandopfer - Infernal Pacts - 2011 (Reissue 2012), FLAC (image+.cue), lossless

    Ответить на тему
     
    Автор Сообщение

    Columb

    Создавать темы 24-Ноя-2014 19:36

           

    [Цитировать]

    Das Brandopfer / Infernal Pacts
    Жанр: Military, Modern Classical, Industrial
    Носитель: CDR
    Страна-производитель диска: Germany
    Год издания: 2011
    Издатель (лейбл): SkullLine
    Номер по каталогу: SLCDR122-11
    Страна исполнителя (группы): Germany
    Аудиокодек: FLAC (*.flac)
    Тип рипа: image+.cue
    Битрейт аудио: lossless
    Продолжительность: 1:00:47
    Источник (релизер): G.R.K.
    Наличие сканов в содержимом раздачи: да
    Треклист:
    01. Movement Of Protest (3:00)
    02. Einsatzbereitschaft (2:08)
    03. Infernal Pacts (2:26)
    04. Der Nebelwerfer (2:35)
    05. Schwarze Sonne (3:47)
    06. Uhrsonne Feuer Adler (3:22)
    07. Defector (3:38)
    08. Der Totentanz (4:02)
    09. Panacea (2:24)
    10. Siegfrieds Funeral (2:21)
    11. Onslaught (2:25)
    12. We Shall Never Surrender (3:01)
    13. Burried In Flowers (2:52)
    14. An Die Maschinen (2:46)
    15. Unsere Heimat (3:20)
    16. Steinerene Symbole (8:13)
    17. Einheit (6:42)
    18. One Down One Down (1:46)

    Лог создания рипа

    Exact Audio Copy V1.0 beta 3 from 29. August 2011
    EAC extraction logfile from 12. September 2014, 1:31
    Das Brandopfer / Infernal Pacts
    Used drive : Optiarc DVD RW AD-7585H Adapter: 1 ID: 0
    Read mode : SecureUtilize accurate stream : YesDefeat audio cache : YesMake use of C2 pointers : No
    Read offset correction : 6Overread into Lead-In and Lead-Out : NoFill up missing offset samples with silence : YesDelete leading and trailing silent blocks : NoNull samples used in CRC calculations : YesUsed interface : Native Win32 interface for Win NT & 2000
    Used output format : User Defined EncoderSelected bitrate : 1024 kBit/sQuality : HighAdd ID3 tag : NoCommand line compressor : C:\Program Files (x86)\Exact Audio Copy\Flac\flac.exeAdditional command line options : -V -8 -T "Date=%year%" -T "Genre=%genre%" %source%
    TOC of the extracted CD
    Track | Start | Length | Start sector | End sector --------------------------------------------------------- 1 | 0:00.00 | 3:00.02 | 0 | 13501 2 | 3:00.02 | 2:08.29 | 13502 | 23130 3 | 5:08.31 | 2:25.61 | 23131 | 34066 4 | 7:34.17 | 2:34.58 | 34067 | 45674 5 | 10:09.00 | 3:46.47 | 45675 | 62671 6 | 13:55.47 | 3:21.65 | 62672 | 77811 7 | 17:17.37 | 3:37.49 | 77812 | 94135 8 | 20:55.11 | 4:02.25 | 94136 | 112310 9 | 24:57.36 | 2:23.72 | 112311 | 123107 10 | 27:21.33 | 2:21.04 | 123108 | 133686 11 | 29:42.37 | 2:25.24 | 133687 | 144585 12 | 32:07.61 | 3:00.46 | 144586 | 158131 13 | 35:08.32 | 2:51.74 | 158132 | 171030 14 | 38:00.31 | 2:45.46 | 171031 | 183451 15 | 40:46.02 | 3:19.74 | 183452 | 198450 16 | 44:06.01 | 8:13.33 | 198451 | 235458 17 | 52:19.34 | 6:42.26 | 235459 | 265634 18 | 59:01.60 | 1:45.73 | 265635 | 273582
    Range status and errors
    Selected range
    Filename D:\CD rip\G.R.K. [rutracker.org]\Das Brandopfer - 2011 - Infernal Pacts\Das Brandopfer - Infernal Pacts.wav
    Peak level 100.0 % Extraction speed 3.2 X Range quality 100.0 % Test CRC 4AAF25D2 Copy CRC 4AAF25D2 Copy OK
    No errors occurred
    AccurateRip summary
    Track 1 not present in databaseTrack 2 not present in databaseTrack 3 not present in databaseTrack 4 not present in databaseTrack 5 not present in databaseTrack 6 not present in databaseTrack 7 not present in databaseTrack 8 not present in databaseTrack 9 not present in databaseTrack 10 not present in databaseTrack 11 not present in databaseTrack 12 not present in databaseTrack 13 not present in databaseTrack 14 not present in databaseTrack 15 not present in databaseTrack 16 not present in databaseTrack 17 not present in databaseTrack 18 not present in database
    None of the tracks are present in the AccurateRip database
    End of status report
    ---- CUETools DB Plugin V2.1.3
    [CTDB TOCID: 8FTFWtEYWs3AU3Qc5HN6UM3C7QA-] disk not present in database, Submit result: 8FTFWtEYWs3AU3Qc5HN6UM3C7QA- has been uploaded
    ==== Log checksum B5A1CD3A3A47D0F65AF2A20425B468E16FA9834DDF9C3976EA6DC68F9A8B55E4 ====
    Скачать .torrent

    Скачать торрент-файл бесплатно и на максимальной скорости!

    Как скачивать? · Что такое торрент? · Рейтинг и ограничения

    !ВНИМАНИЕ!
    Сайт не распространяет и не хранит электронные версии произведений, а занимается лишь лишь предоставлением доступа к создаваемому пользователями каталогу ссылок на торрент-файлы, которые содержат только списки хеш-сумм, убедительная просьба с жалобами обращаться напрямую к пользователю. Файлы для обмена на трекере предоставлены пользователями сайта, и администрация не несёт ответственности за их содержание. Просьба не заливать файлы, защищенные авторскими правами, а также файлы нелегального содержания!

    [Профиль] [ЛС]
    Показать сообщения:    
    Ответить на тему

    Текущее время: Сегодня, в 06:16

    Часовой пояс: GMT + 2



    Вы не можете начинать темы
    Вы не можете отвечать на сообщения
    Вы не можете редактировать свои сообщения
    Вы не можете удалять свои сообщения
    Вы не можете голосовать в опросах
    Вы не можете прикреплять файлы к сообщениям
    Вы не можете скачивать файлы