BitTorrentTracker PerecTracker.org
BitTorrentTracker PerecTracker.org
    
Регистрация  ·  Вход
 
 · 
Забыли пароль?

  • (Dark Ambient, Military, Power Electronics) [CDR] Corazzata Valdemone - Madre Patria - 2008, FLAC (image+.cue), lossless

    Ответить на тему
     
    Автор Сообщение

    Columb

    Создавать темы 24-Ноя-2014 19:35

           

    [Цитировать]

    Corazzata Valdemone / Madre Patria
    Жанр: Dark Ambient, Military, Power Electronics
    Носитель: CDR
    Страна-производитель диска: Germany
    Год издания: 2008
    Издатель (лейбл): SkullLine
    Номер по каталогу: SLCDR032-08
    Страна исполнителя (группы): Italy
    Аудиокодек: FLAC (*.flac)
    Тип рипа: image+.cue
    Битрейт аудио: lossless
    Продолжительность: 56:50
    Источник (релизер): G.R.K.
    Наличие сканов в содержимом раздачи: да
    Треклист:
    01. Reichkammermusik (4:20)
    02. Bundnis (5:18)
    03. Totalitarian Noise (5:13)
    04. Absolute Holocaust (3:55)
    05. Congregation (5:03)
    06. La Notte Dei Cristalli (8:01)
    07. L' Impero (5:04)
    08. The Old And Good Oil Treadment (19:56)

    Лог создания рипа

    Exact Audio Copy V1.0 beta 3 from 29. August 2011
    EAC extraction logfile from 11. September 2014, 23:26
    Corazzata Valdemone / Madre Patria
    Used drive : Optiarc DVD RW AD-7585H Adapter: 1 ID: 0
    Read mode : SecureUtilize accurate stream : YesDefeat audio cache : YesMake use of C2 pointers : No
    Read offset correction : 6Overread into Lead-In and Lead-Out : NoFill up missing offset samples with silence : YesDelete leading and trailing silent blocks : NoNull samples used in CRC calculations : YesUsed interface : Native Win32 interface for Win NT & 2000
    Used output format : User Defined EncoderSelected bitrate : 1024 kBit/sQuality : HighAdd ID3 tag : NoCommand line compressor : C:\Program Files (x86)\Exact Audio Copy\Flac\flac.exeAdditional command line options : -V -8 -T "Date=%year%" -T "Genre=%genre%" %source%
    TOC of the extracted CD
    Track | Start | Length | Start sector | End sector --------------------------------------------------------- 1 | 0:00.00 | 4:20.00 | 0 | 19499 2 | 4:20.00 | 5:18.00 | 19500 | 43349 3 | 9:38.00 | 5:13.37 | 43350 | 66861 4 | 14:51.37 | 3:55.20 | 66862 | 84506 5 | 18:46.57 | 5:03.28 | 84507 | 107259 6 | 23:50.10 | 8:01.00 | 107260 | 143334 7 | 31:51.10 | 5:03.56 | 143335 | 166115 8 | 36:54.66 | 19:56.00 | 166116 | 255815
    Range status and errors
    Selected range
    Filename D:\CD rip\G.R.K. [rutracker.org]\Corazzata Valdemone - 2008 - Madre Patria\Corazzata Valdemone - Madre Patria.wav
    Peak level 93.9 % Extraction speed 3.2 X Range quality 100.0 % Test CRC F9E859CF Copy CRC F9E859CF Copy OK
    No errors occurred
    AccurateRip summary
    Track 1 not present in databaseTrack 2 not present in databaseTrack 3 not present in databaseTrack 4 not present in databaseTrack 5 not present in databaseTrack 6 not present in databaseTrack 7 not present in databaseTrack 8 not present in database
    None of the tracks are present in the AccurateRip database
    End of status report
    ---- CUETools DB Plugin V2.1.3
    [CTDB TOCID: h.8q0HsagkRlKynv_GidNGCG2Fk-] disk not present in database, Submit result: h.8q0HsagkRlKynv_GidNGCG2Fk- has been uploaded
    ==== Log checksum E553410F43BBB06B866DE68F285A1DC415DF85710E3109894C838D79189445FA ====
    Скачать .torrent

    Скачать торрент-файл бесплатно и на максимальной скорости!

    Как скачивать? · Что такое торрент? · Рейтинг и ограничения

    !ВНИМАНИЕ!
    Сайт не распространяет и не хранит электронные версии произведений, а занимается лишь лишь предоставлением доступа к создаваемому пользователями каталогу ссылок на торрент-файлы, которые содержат только списки хеш-сумм, убедительная просьба с жалобами обращаться напрямую к пользователю. Файлы для обмена на трекере предоставлены пользователями сайта, и администрация не несёт ответственности за их содержание. Просьба не заливать файлы, защищенные авторскими правами, а также файлы нелегального содержания!

    [Профиль] [ЛС]
    Показать сообщения:    
    Ответить на тему

    Текущее время: Сегодня, в 22:36

    Часовой пояс: GMT + 2



    Вы не можете начинать темы
    Вы не можете отвечать на сообщения
    Вы не можете редактировать свои сообщения
    Вы не можете удалять свои сообщения
    Вы не можете голосовать в опросах
    Вы не можете прикреплять файлы к сообщениям
    Вы не можете скачивать файлы