BitTorrentTracker PerecTracker.org
BitTorrentTracker PerecTracker.org
    
Регистрация  ·  Вход
 
 · 
Забыли пароль?

  • (Neofolk, Military) [CD] Bolverkstorm - Ewigkeit - 2014, FLAC (image+.cue), lossless

    Ответить на тему
     
    Автор Сообщение

    Columb

    Создавать темы 24-Ноя-2014 19:35

           

    [Цитировать]

    Bolverkstorm / Ewigkeit
    Жанр: Neofolk, Military
    Носитель: CD
    Страна-производитель диска: Russia
    Год издания: 2014
    Издатель (лейбл): Valgriind
    Номер по каталогу: VG54
    Страна исполнителя (группы): Russia
    Аудиокодек: FLAC (*.flac)
    Тип рипа: image+.cue
    Битрейт аудио: lossless
    Продолжительность: 46:50
    Источник (релизер): G.R.K.
    Наличие сканов в содержимом раздачи: да
    Треклист:
    01. Via Lactea (5:04)
    02. Unsterblichen / Feuer Ostfront (4:56)
    03. Homo Collapsus / Ad Mortem (3:12)
    04. Body To Dust, Soul To Stars (3:03)
    05. Steel Agony (3:48)
    06. Im Sturm Des Sieges / Wir Kommen (2:44)
    07. Flesh To Sword (7:26)
    08. March Of Dissent / Ghost Counter (3:12)
    09. Skogul (1:52)
    10. Toten / Traumen / Ewigkeit (5:27)
    11. The Sun Will Rise Again (3:55)
    12. Death Battalion - In Der Umarmung Der Boden (Bonus Track) (2:11)

    Лог создания рипа

    Exact Audio Copy V1.0 beta 3 from 29. August 2011
    EAC extraction logfile from 7. September 2014, 22:13
    Bolverkstorm / Ewigkeit
    Used drive : Optiarc DVD RW AD-7585H Adapter: 1 ID: 0
    Read mode : SecureUtilize accurate stream : YesDefeat audio cache : YesMake use of C2 pointers : No
    Read offset correction : 6Overread into Lead-In and Lead-Out : NoFill up missing offset samples with silence : YesDelete leading and trailing silent blocks : NoNull samples used in CRC calculations : YesUsed interface : Native Win32 interface for Win NT & 2000
    Used output format : User Defined EncoderSelected bitrate : 1024 kBit/sQuality : HighAdd ID3 tag : NoCommand line compressor : C:\Program Files (x86)\Exact Audio Copy\Flac\flac.exeAdditional command line options : -V -8 -T "Date=%year%" -T "Genre=%genre%" %source%
    TOC of the extracted CD
    Track | Start | Length | Start sector | End sector --------------------------------------------------------- 1 | 0:00.00 | 5:03.56 | 0 | 22780 2 | 5:03.56 | 4:56.06 | 22781 | 44986 3 | 9:59.62 | 3:11.73 | 44987 | 59384 4 | 13:11.60 | 3:03.18 | 59385 | 73127 5 | 16:15.03 | 3:48.37 | 73128 | 90264 6 | 20:03.40 | 2:43.47 | 90265 | 102536 7 | 22:47.12 | 7:26.01 | 102537 | 135987 8 | 30:13.13 | 3:12.26 | 135988 | 150413 9 | 33:25.39 | 1:51.50 | 150414 | 158788 10 | 35:17.14 | 5:27.22 | 158789 | 183335 11 | 40:44.36 | 3:55.09 | 183336 | 200969 12 | 44:39.45 | 2:10.43 | 200970 | 210762
    Range status and errors
    Selected range
    Filename D:\CD rip\Bolverkstorm - 2014 - Ewigkeit [FLAC]\Bolverkstorm - Ewigkeit.wav
    Peak level 100.0 % Extraction speed 3.0 X Range quality 100.0 % Test CRC 1FCEB27A Copy CRC 1FCEB27A Copy OK
    No errors occurred
    AccurateRip summary
    Track 1 not present in databaseTrack 2 not present in databaseTrack 3 not present in databaseTrack 4 not present in databaseTrack 5 not present in databaseTrack 6 not present in databaseTrack 7 not present in databaseTrack 8 not present in databaseTrack 9 not present in databaseTrack 10 not present in databaseTrack 11 not present in databaseTrack 12 not present in database
    None of the tracks are present in the AccurateRip database
    End of status report
    ---- CUETools DB Plugin V2.1.3
    [CTDB TOCID: IVZy9D0eDeSnRhbQKA.16mucIYw-] disk not present in database, Submit result: IVZy9D0eDeSnRhbQKA.16mucIYw- has been uploaded
    ==== Log checksum 1F8C4AEB0DBF708801804291685626AB58C80E7DD3B19046DDCA8F0EAC87E764 ====
    Скачать .torrent

    Скачать торрент-файл бесплатно и на максимальной скорости!

    Как скачивать? · Что такое торрент? · Рейтинг и ограничения

    !ВНИМАНИЕ!
    Сайт не распространяет и не хранит электронные версии произведений, а занимается лишь лишь предоставлением доступа к создаваемому пользователями каталогу ссылок на торрент-файлы, которые содержат только списки хеш-сумм, убедительная просьба с жалобами обращаться напрямую к пользователю. Файлы для обмена на трекере предоставлены пользователями сайта, и администрация не несёт ответственности за их содержание. Просьба не заливать файлы, защищенные авторскими правами, а также файлы нелегального содержания!

    [Профиль] [ЛС]
    Показать сообщения:    
    Ответить на тему

    Текущее время: Сегодня, в 04:15

    Часовой пояс: GMT + 2



    Вы не можете начинать темы
    Вы не можете отвечать на сообщения
    Вы не можете редактировать свои сообщения
    Вы не можете удалять свои сообщения
    Вы не можете голосовать в опросах
    Вы не можете прикреплять файлы к сообщениям
    Вы не можете скачивать файлы