BitTorrentTracker PerecTracker.org
BitTorrentTracker PerecTracker.org
    
Регистрация  ·  Вход
 
 · 
Забыли пароль?

  • (EBM, Industrial, Electro) [CD] Birmingham 6 - Mindhallucination - 1994, FLAC (image+.cue), lossless

    Ответить на тему
     
    Автор Сообщение

    Columb

    Создавать темы 24-Ноя-2014 19:34

           

    [Цитировать]

    Birmingham 6 - Mindhallucination-Жанр: EBM, Industrial, Electro
    Носитель: CD
    Страна-производитель диска: Denmark
    Год издания: 1994
    Дата выхода оригинального издания: 1994
    Тип издания: CD, Album
    Издатель (лейбл): Transfixion
    Номер по каталогу: TFX 003 CD
    Страна: Denmark
    Аудиокодек: FLAC (*.flac)
    Тип рипа: image+.cue
    Битрейт аудио: lossless
    Продолжительность: 00:56:56
    Наличие сканов в содержимом раздачи: да, PNG 600dpi
    Треклист:
    01. Birmingham 6 [04:43]
    02. Israel '94 [06:10]
    03. 6794700 [04:54]
    04. All Around the Watchtower [05:36]
    05. Lovechild [04:36]
    06. Mindhallucination [05:16]
    07. This Girl '94 [07:41]
    08. Who Do You Love? (Evil) [06:06]
    09. Contagious [05:29]
    10. Radicals [06:20]

    Лог EAC

    Exact Audio Copy V1.0 beta 3 from 29. August 2011
    Отчёт EAC об извлечении, выполненном 2. ноября 2014, 21:49
    Birmingham 6 / Mindhallucination (TFX 003 CD)
    Дисковод: PIONEER BD-RW BDR-206 Adapter: 1 ID: 1
    Режим чтения : ДостоверностьИспользование точного потока : ДаОтключение кэша аудио : ДаИспользование указателей C2 : Нет
    Коррекция смещения при чтении : 667Способность читать области Lead-in и Lead-out : НетЗаполнение пропущенных сэмплов тишиной : ДаУдаление блоков с тишиной в начале и конце : НетПри вычислениях CRC использовались нулевые сэмплы : ДаИнтерфейс : Установленный внешний ASPI-интерфейс
    Выходной формат : Пользовательский кодировщикВыбранный битрейт : 1024 kBit/sКачество : ВысокийДобавление ID3-тега : НетУтилита сжатия : C:\Program Files (x86)\Exact Audio Copy\FLAC\FLAC.EXEДополнительные параметры : -T "COMMENT=Ripped by SergeyJD"-8 -V -T "ARTIST=%artist%" -T "TITLE=%title%" -T "ALBUM=%albumtitle%" -T "DATE=%year%" -T "TRACKNUMBER=%tracknr%" -T "GENRE=%genre%" -T "COMMENT=%comment%" -T "BAND=%albuminterpret%" -T "ALBUMARTIST=%albuminterpret%" -T "COMPOSER=%composer%" %haslyrics%--tag-from-file=LYRICS="%lyricsfile%"%haslyrics% -T "DISCNUMBER=%cdnumber%" -T "TOTALDISCS=%totalcds%" -T "TOTALTRACKS=%numtracks%" %hascover%--picture="%coverfile%"%hascover% %source% -o %dest%
    TOC извлечённого CD
    Трек | Старт | Длительность | Начальный сектор | Конечный сектор --------------------------------------------------------------------- 1 | 0:00.00 | 4:43.25 | 0 | 21249 2 | 4:43.25 | 6:10.62 | 21250 | 49061 3 | 10:54.12 | 4:54.40 | 49062 | 71151 4 | 15:48.52 | 5:36.13 | 71152 | 96364 5 | 21:24.65 | 4:36.50 | 96365 | 117114 6 | 26:01.40 | 5:16.42 | 117115 | 140856 7 | 31:18.07 | 7:41.65 | 140857 | 175496 8 | 38:59.72 | 6:06.23 | 175497 | 202969 9 | 45:06.20 | 5:29.20 | 202970 | 227664 10 | 50:35.40 | 6:20.70 | 227665 | 256234
    Характеристики диапазона извлечения и сообщения об ошибках
    Выбранный диапазон
    Имя файла D:\РАЗДАЧИ!!!!\Birmingham 6 - Mindhallucination (TFX 003 CD) - 1994\Birmingham 6 - Mindhallucination (TFX 003 CD).wav
    Пиковый уровень 100.0 % Скорость извлечения 7.3 X Качество диапазона 100.0 % CRC теста 7A569160 CRC копии 7A569160 Копирование... OK
    Ошибок не произошло
    AccurateRip: сводка
    Трек 1 : извлечено точно (доверие 4) [49C61F09] (AR v1)Трек 2 : извлечено точно (доверие 4) [DD3B0973] (AR v1)Трек 3 : извлечено точно (доверие 4) [8BA6C3D6] (AR v1)Трек 4 : извлечено точно (доверие 4) [27FBE9E5] (AR v1)Трек 5 : извлечено точно (доверие 4) [BE34DFE1] (AR v1)Трек 6 : извлечено точно (доверие 4) [CDDE43EE] (AR v1)Трек 7 : извлечено точно (доверие 4) [10A17A89] (AR v1)Трек 8 : извлечено точно (доверие 4) [4DA70980] (AR v1)Трек 9 : извлечено точно (доверие 4) [13092C18] (AR v1)Трек 10 : извлечено точно (доверие 3) [B9D01E25] (AR v1)
    Все треки извлечены точно
    Конец отчёта
    ---- CUETools DB Plugin V2.1.4
    [CTDB TOCID: 6Ww2VBBqZsMaB_M1KO3WA3ozi5k-] disk not present in databaseSubmit result: 6Ww2VBBqZsMaB_M1KO3WA3ozi5k- has been uploaded
    ==== Контрольная сумма отчёта A22506EF16AFA0E94DC4890CE80485BEB4B0378F445D158CFCD372C4D8FCEFBC ====

    Содержание индексной карты (.CUE)

    REM GENRE "EBM, Electro, Industrial"REM DATE 1994REM DISCID 890D580AREM COMMENT "ExactAudioCopy v1.0b3"PERFORMER "Birmingham 6"TITLE "Mindhallucination (TFX 003 CD)"FILE "Birmingham 6 - Mindhallucination (TFX 003 CD).flac" WAVE TRACK 01 AUDIO TITLE "Birmingham 6" PERFORMER "Birmingham 6" INDEX 01 00:00:00 TRACK 02 AUDIO TITLE "Israel '94" PERFORMER "Birmingham 6" INDEX 00 04:40:15 INDEX 01 04:43:25 TRACK 03 AUDIO TITLE "6794700" PERFORMER "Birmingham 6" INDEX 00 10:52:50 INDEX 01 10:54:12 TRACK 04 AUDIO TITLE "All Around the Watchtower" PERFORMER "Birmingham 6" INDEX 00 15:46:05 INDEX 01 15:48:52 TRACK 05 AUDIO TITLE "Lovechild" PERFORMER "Birmingham 6" INDEX 00 21:22:07 INDEX 01 21:24:65 TRACK 06 AUDIO TITLE "Mindhallucination" PERFORMER "Birmingham 6" INDEX 00 25:58:57 INDEX 01 26:01:40 TRACK 07 AUDIO TITLE "This Girl '94" PERFORMER "Birmingham 6" INDEX 00 31:15:17 INDEX 01 31:18:07 TRACK 08 AUDIO TITLE "Who Do You Love? (Evil)" PERFORMER "Birmingham 6" INDEX 00 38:57:72 INDEX 01 38:59:72 TRACK 09 AUDIO TITLE "Contagious" PERFORMER "Birmingham 6" INDEX 00 45:04:37 INDEX 01 45:06:20 TRACK 10 AUDIO TITLE "Radicals" PERFORMER "Birmingham 6" INDEX 00 50:32:70 INDEX 01 50:35:40

    Лог auCDtect Task Manager

    -----------------------
    DON'T MODIFY THIS FILE
    -----------------------
    PERFORMER: auCDtect Task Manager, ver. 1.5.1RC6 build 1.5.1.7Copyright (c) 2008-2010 y-soft. All rights reservedhttp://y-soft.org
    ANALYZER: auCDtect: CD records authenticity detector, version 0.8.2Copyright (c) 2004 Oleg Berngardt. All rights reserved.Copyright (c) 2004 Alexander Djourik. All rights reserved.
    FILE: Birmingham 6 - Mindhallucination (TFX 003 CD).flac Size: 433618338 Hash: 664FD7180D08488F0E1ADFEA3755DCA4 Accuracy: -m0 Conclusion: CDDA 99% Signature: 11DA3CDE91380F5B99496AE889F25F38BDC2BBE1

    Замер динамического диапазона (DR)

    foobar2000 1.2.3 / Замер динамического диапазона (DR) 1.1.1
    Дата отчёта: 2014-11-23 13:34:52
    --------------------------------------------------------------------------------
    Анализ: Birmingham 6 / Mindhallucination (TFX 003 CD)
    --------------------------------------------------------------------------------
    DR Пики RMS Продолжительность трека
    --------------------------------------------------------------------------------
    DR10 -0.29 дБ -11.18 дБ 4:43 01-Birmingham 6
    DR10 -0.49 дБ -11.61 дБ 6:11 02-Israel '94
    DR10 0.00 дБ -11.28 дБ 4:55 03-6794700
    DR11 -0.51 дБ -11.98 дБ 5:36 04-All Around the Watchtower
    DR11 0.00 дБ -11.86 дБ 4:37 05-Lovechild
    DR10 -0.01 дБ -11.26 дБ 5:17 06-Mindhallucination
    DR11 -0.21 дБ -12.46 дБ 7:42 07-This Girl '94
    DR10 -0.46 дБ -11.72 дБ 6:06 08-Who Do You Love? (Evil)
    DR11 -0.49 дБ -12.35 дБ 5:29 09-Contagious
    DR10 -0.09 дБ -11.64 дБ 6:21 10-Radicals
    --------------------------------------------------------------------------------
    Количество треков: 10
    Реальные значения DR: DR10
    Частота: 44100 Гц
    Каналов: 2
    Разрядность: 16
    Битрейт: 1015 кбит/с
    Кодек: FLAC
    ================================================================================

    Covers

    -
    Скачать .torrent

    Скачать торрент-файл бесплатно и на максимальной скорости!

    Как скачивать? · Что такое торрент? · Рейтинг и ограничения

    !ВНИМАНИЕ!
    Сайт не распространяет и не хранит электронные версии произведений, а занимается лишь лишь предоставлением доступа к создаваемому пользователями каталогу ссылок на торрент-файлы, которые содержат только списки хеш-сумм, убедительная просьба с жалобами обращаться напрямую к пользователю. Файлы для обмена на трекере предоставлены пользователями сайта, и администрация не несёт ответственности за их содержание. Просьба не заливать файлы, защищенные авторскими правами, а также файлы нелегального содержания!

    [Профиль] [ЛС]
    Показать сообщения:    
    Ответить на тему

    Текущее время: Сегодня, в 22:26

    Часовой пояс: GMT + 2



    Вы не можете начинать темы
    Вы не можете отвечать на сообщения
    Вы не можете редактировать свои сообщения
    Вы не можете удалять свои сообщения
    Вы не можете голосовать в опросах
    Вы не можете прикреплять файлы к сообщениям
    Вы не можете скачивать файлы