BitTorrentTracker PerecTracker.org
BitTorrentTracker PerecTracker.org
    
Регистрация  ·  Вход
 
 · 
Забыли пароль?

  • Schiller - Symphonia [2014, Electronic, Symphonic, BDRip 720p]

    Ответить на тему
     
    Автор Сообщение

    Columb

    Создавать темы 24-Ноя-2014 19:15

           

    [Цитировать]

    Schiller - Symphonia
    Жанр: Electronic, Symphonic
    Продолжительность: 01:53:53
    Год выпуска: 2014
    Описание: m Herbst veröffentlicht Deutschlands erfolgreichster Elektronik-Künstler Schiller mit Symphonia ein einzigartiges Werk: Die Live-Aufzeichnung des Open-Air-Konzertes auf dem legendären Gendarmenmarkt in Berlin.
    Das einmalige Live-Event ist eine ganz besondere Premiere: Erstmalig hat Schiller-Macher Christopher von Deylen die markantesten Songs seines langjährigen Schaffens zusammen mit einem grossen Symphonie-Orchester aufgeführt.
    Songs wie „Sehnsucht“, „Ein schöner Tag“ oder „Das Glockenspiel“ wurden für diesen Anlass musikalisch vollkommen neu gestaltet - Schillers elektronische Klangwelten treffen auf epische Orchester-Arrangements.
    Zusätzlich zu dem aus über 60 Musikern bestehenden Orchester hat Christopher von Deylen internationale Gastkünstler eingeladen: Midge Ure (Frontmann der britischen Elektronik-Pop-Pioniere Ultravox), die Schweizerin Jaël sowie die russische Ausnahme-Sopranistin Eva Mali. Gemeinsam mit dem Grafen von Unheilig hat Schiller erstmalig den Titelsong des Nummer-Eins-Albums „Sonne“ live aufgeführt.
    Треклист:
    1. Tune In
    2. Berlin Bombay
    3. Ein Schöner Tag
    4. Hochland
    5. Playing With Madness
    6. Lichtermeer
    7. Schiller
    8. Desert Empire
    9. Ruhe
    10. Sehnsucht (Instrumental)
    11. Sehnsucht: Reprise
    12. Sommernacht
    13. Berlin Moskau
    14. Tired
    15. Leben...I Feel You (Instrumental)
    16. Tiefblau
    17. Solveig's Song
    18. Let It Rise
    19. White
    20. Das Glockenspiel
    21. Sonne
    22. Nachtflug
    23. Vienna
    24. Berlin Berlin
    Качество: BDRip 720p
    Контейнер: MKV
    Видео кодек: H.264
    Аудио кодек: DTS
    Видео: AVC, 1280x544, 2.35:1, 5353 Kbps, 25 fps
    Аудио: DTS, 1509 Kbps, 48.0 KHz, 6 ch

    MediaInfo

    GeneralUnique ID : 216807357085380967102712723178600164947 (0xA31B93FF80D06EE687D30A9A4FDE6E53)Complete name : E:\Schiller.Symphonia.2014.720p.MBluRay.x264-LiQUiD\Schiller.Symphonia.2014.720p.mkvFormat : MatroskaFormat version : Version 4 / Version 2File size : 5.46 GiBDuration : 1h 53mnOverall bit rate : 6 870 KbpsEncoded date : UTC 2014-11-22 23:53:06Writing application : mkvmerge v7.3.0 ('Nouages') 64bit built on Oct 22 2014 18:53:34Writing library : libebml v1.3.0 + libmatroska v1.4.1_STATISTICS_WRITING_APP : mkvmerge v7.3.0 ('Nouages') 64bit built on Oct 22 2014 18:53:34_STATISTICS_WRITING_DATE_UTC : 2014-11-22 23:53:06_STATISTICS_TAGS : BPS DURATION NUMBER_OF_FRAMES NUMBER_OF_BYTESDURATION : 01:53:53.003000000NUMBER_OF_FRAMES : 640594NUMBER_OF_BYTES : 1288875128
    VideoID : 1Format : AVCFormat/Info : Advanced Video CodecFormat profile : High@L4.1Format settings, CABAC : YesFormat settings, ReFrames : 5 framesCodec ID : V_MPEG4/ISO/AVCDuration : 1h 53mnBit rate : 5 353 KbpsWidth : 1 280 pixelsHeight : 544 pixelsDisplay aspect ratio : 2.35:1Frame rate mode : ConstantFrame rate : 25.000 fpsColor space : YUVChroma subsampling : 4:2:0Bit depth : 8 bitsScan type : ProgressiveBits/(Pixel*Frame) : 0.308Stream size : 4.16 GiB (76%)Writing library : x264 core 142 r2479 dd79a61Encoding settings : cabac=1 / ref=5 / deblock=1:0:0 / analyse=0x3:0x133 / me=umh / subme=8 / psy=1 / psy_rd=1.00:0.00 / mixed_ref=1 / me_range=16 / chroma_me=1 / trellis=1 / 8x8dct=1 / cqm=0 / deadzone=21,11 / fast_pskip=0 / chroma_qp_offset=-2 / threads=12 / lookahead_threads=2 / sliced_threads=0 / nr=0 / decimate=1 / interlaced=0 / bluray_compat=0 / constrained_intra=0 / bframes=3 / b_pyramid=2 / b_adapt=1 / b_bias=0 / direct=1 / weightb=1 / open_gop=0 / weightp=2 / keyint=250 / keyint_min=25 / scenecut=40 / intra_refresh=0 / rc_lookahead=40 / rc=2pass / mbtree=1 / bitrate=5353 / ratetol=1.0 / qcomp=0.60 / qpmin=0 / qpmax=69 / qpstep=4 / cplxblur=20.0 / qblur=0.5 / ip_ratio=1.40 / aq=1:1.00Language : EnglishDefault : YesForced : No_STATISTICS_WRITING_APP : mkvmerge v7.3.0 ('Nouages') 64bit built on Oct 22 2014 18:53:34_STATISTICS_WRITING_DATE_UTC : 2014-11-22 23:53:06_STATISTICS_TAGS : BPS DURATION NUMBER_OF_FRAMES NUMBER_OF_BYTESDURATION : 01:53:53.000000000NUMBER_OF_FRAMES : 170825NUMBER_OF_BYTES : 4576955920
    AudioID : 2Format : DTSFormat/Info : Digital Theater SystemsMode : 16Format settings, Endianness : BigCodec ID : A_DTSDuration : 1h 53mnBit rate mode : ConstantBit rate : 1 509 KbpsChannel(s) : 6 channelsChannel positions : Front: L C R, Side: L R, LFESampling rate : 48.0 KHzBit depth : 24 bitsCompression mode : LossyStream size : 1.20 GiB (22%)Default : YesForced : No
    Menu00:00:00.000 : en:00:00:00.00000:00:41.000 : en:00:00:41.00000:05:42.200 : en:00:05:42.20000:11:18.840 : en:00:11:18.84000:15:48.480 : en:00:15:48.48000:21:07.600 : en:00:21:07.60000:25:18.960 : en:00:25:18.96000:31:06.280 : en:00:31:06.28000:36:13.800 : en:00:36:13.80000:40:57.240 : en:00:40:57.24000:47:20.040 : en:00:47:20.04000:48:28.200 : en:00:48:28.20000:53:20.520 : en:00:53:20.52000:59:05.000 : en:00:59:05.00001:04:19.680 : en:01:04:19.68001:06:17.120 : en:01:06:17.12001:11:30.800 : en:01:11:30.80001:15:59.000 : en:01:15:59.00001:21:08.440 : en:01:21:08.44001:22:56.880 : en:01:22:56.88001:27:50.920 : en:01:27:50.92001:34:40.320 : en:01:34:40.32001:41:21.640 : en:01:41:21.64001:46:45.000 : en:01:46:45.00001:51:42.440 : en:01:51:42.440

    Скриншоты



    Скачать .torrent

    Скачать торрент-файл бесплатно и на максимальной скорости!

    Как скачивать? · Что такое торрент? · Рейтинг и ограничения

    !ВНИМАНИЕ!
    Сайт не распространяет и не хранит электронные версии произведений, а занимается лишь лишь предоставлением доступа к создаваемому пользователями каталогу ссылок на торрент-файлы, которые содержат только списки хеш-сумм, убедительная просьба с жалобами обращаться напрямую к пользователю. Файлы для обмена на трекере предоставлены пользователями сайта, и администрация не несёт ответственности за их содержание. Просьба не заливать файлы, защищенные авторскими правами, а также файлы нелегального содержания!

    [Профиль] [ЛС]
    Показать сообщения:    
    Ответить на тему

    Текущее время: Сегодня, в 14:33

    Часовой пояс: GMT + 2



    Вы не можете начинать темы
    Вы не можете отвечать на сообщения
    Вы не можете редактировать свои сообщения
    Вы не можете удалять свои сообщения
    Вы не можете голосовать в опросах
    Вы не можете прикреплять файлы к сообщениям
    Вы не можете скачивать файлы