BitTorrentTracker PerecTracker.org
BitTorrentTracker PerecTracker.org
    
Регистрация  ·  Вход
 
 · 
Забыли пароль?

  • Снежная королева (Лев Атаманов) [1957, драма, семейный, DVDRip, 480p] Original

    Ответить на тему
     
    Автор Сообщение

    Columb

    Создавать темы 23-Ноя-2014 21:48

           

    [Цитировать]

    Снежная королева

    Год выпуска: 1957
    Страна: СССР
    Жанр: фэнтэзи, драма, семейный
    Продолжительность: 01:00:34
    Режиссёр: Лев Атаманов
    Сценарий: Лев Атаманов, Николай Эрдман, Георгий Гребнер
    Роли озучивали: Владимир Грибков, Мария Бабанова, Янина Жеймо, Сергей Мартинсон, Анна Комолова, Галина Кожакина, Варвара Попова, Алексей Консовский, Ирина Мурзаева, Елена Понсова
    Описание:
    В один из морозных зимних вечеров, когда сквозь расписанные причудливым узором окна уютных, теплых домов прокрадывается темнота, а во дворе тревожно завывает вьюга, Снежная королева умчала маленького Кая в свои ледяные владения и превратила его доброе отзывчивое сердце в осколок льдинки. Через множество испытаний пришлось пройти верной Герде, чтобы добраться до чертогов Снежной королевы и спасти мальчика, освободить его из ледового плена, где царят душевный холод и безразличие.
    Исходник: DVD5
    Контейнер: m4v
    Видео: H.264, 640x480 (4:3), 1800 kbps, 25 fps
    Аудио: AAC, 2 ch, 160 kbps, 48 kHz
    Главы: прописаны

    iTunes Meta Tags

    Name: Снежная королева
    Artist: Лев Атаманов
    Release Date: 1957-10-22T08:00:00Z
    Description: В один из морозных зимних вечеров, когда сквозь расписанные причудливым узором окна уютных, теплых домов прокрадывается темнота, а во дворе тревожно завывает вьюга, Снежная королева умчала маленького Кая в свои ледяные владения и превратила его доброе отзывчивое сердце в осколок льдинки. Через множество испытаний пришлось пройти верной Герде, чтобы добраться до чертогов Снежной королевы и спасти мальчика, освободить его из ледового плена, где царят душевный холод и безразличие.
    Long Description: В один из морозных зимних вечеров, когда сквозь расписанные причудливым узором окна уютных, теплых домов прокрадывается темнота, а во дворе тревожно завывает вьюга, Снежная королева умчала маленького Кая в свои ледяные владения и превратила его доброе отзывчивое сердце в осколок льдинки. Через множество испытаний пришлось пройти верной Герде, чтобы добраться до чертогов Снежной королевы и спасти мальчика, освободить его из ледового плена, где царят душевный холод и безразличие.
    Cast: Владимир Грибков, Мария Бабанова, Янина Жеймо, Сергей Мартинсон, Анна Комолова, Галина Кожакина, Варвара Попова, Алексей Консовский, Ирина Мурзаева, Елена Понсова
    Director: Лев Атаманов
    Screenwriters: Лев Атаманов, Николай Эрдман, Георгий Гребнер
    contentID: 29818
    XID: Apple:vendor_id:1957-29818

    x264 log

    x264 [info]: frame I:3375 Avg QP:29.06 size: 28689 PSNR Mean Y:35.02 U:49.05 V:47.94 Avg:36.61 Global:33.70
    x264 [info]: frame P:87478 Avg QP:23.11 size: 8210 PSNR Mean Y:41.22 U:49.63 V:48.09 Avg:42.57 Global:41.41
    x264 [info]: mb I I16..4: 18.7% 0.0% 81.3%
    x264 [info]: mb P I16..4: 2.1% 0.0% 4.7% P16..4: 41.1% 17.7% 6.9% 0.0% 0.0% skip:27.5%
    x264 [info]: coded y,uvDC,uvAC intra: 80.0% 39.5% 11.2% inter: 28.9% 20.7% 1.1%
    x264 [info]: i16 v,h,dc,p: 35% 22% 18% 24%
    x264 [info]: i4 v,h,dc,ddl,ddr,vr,hd,vl,hu: 6% 5% 5% 15% 19% 16% 14% 11% 9%
    x264 [info]: i8c dc,h,v,p: 67% 15% 14% 4%
    x264 [info]: ref P L0: 73.7% 15.7% 10.6%
    x264 [info]: SSIM Mean Y:0.9646056 (14.511db)
    x264 [info]: PSNR Mean Y:40.988 U:49.611 V:48.085 Avg:42.346 Global:40.684 kb/s:1794.06

    MediaInfo

    General
    Format : MPEG-4
    Format profile : Base Media / Version 2
    Codec ID : mp42
    File size : 850 MiB
    Duration : 1h 0mn
    Overall bit rate mode : Variable
    Overall bit rate : 1 963 Kbps
    Movie name : Снежная королева
    Performer : Лев Атаманов
    Director : Лев Атаманов
    Actor : Владимир Грибков / Мария Бабанова / Янина Жеймо / Сергей Мартинсон / Анна Комолова / Галина Кожакина / Варвара Попова / Алексей Консовский / Ирина Мурзаева / Елена Понсова
    Screenplay by : Лев Атаманов / Николай Эрдман / Георгий Гребнер
    Production studio : Союзмультфильм
    Genre : мультфильм, драма, фэнтези, семейный
    ContentType : Short Film
    Description : В один из морозных зимних вечеров Снежная королева умчала маленького Кая в свои ледяные владения и превратила его доброе отзывчивое сердце в осколок льдинки.
    Recorded date : 1957-10-22
    Encoded date : UTC 2014-11-18 14:24:49
    Tagged date : UTC 2014-11-19 11:20:17
    Cover : Yes
    Rating : None
    LongDescription : В один из морозных зимних вечеров, когда сквозь расписанные причудливым узором окна уютных, теплых ломов прокрадывается темнота, а во дворе тревожно завывает вьюга, Снежная королева умчала маленького Кая в свои ледяные владения и превратила его доброе отзывчивое сердце в осколок льдинки. Через множество испытаний пришлось пройти верной Герде, чтобы добраться до чертогов Снежной королевы и спасти мальчика, освободить его из ледового плена, где царят душевный холод и безразличие.
    AppleStoreCatalogID : 29818
    Vendor : Apple:vendor_id:1957-29818
    Video #1
    ID : 1
    Format : AVC
    Format/Info : Advanced Video Codec
    Format profile : Baseline@L3.0
    Format settings, CABAC : No
    Format settings, ReFrames : 3 frames
    Codec ID : avc1
    Codec ID/Info : Advanced Video Coding
    Duration : 1h 0mn
    Bit rate : 1 800 Kbps
    Width : 640 pixels
    Height : 480 pixels
    Display aspect ratio : 4:3
    Frame rate mode : Constant
    Frame rate : 25.000 fps
    Color space : YUV
    Chroma subsampling : 4:2:0
    Bit depth : 8 bits
    Scan type : Progressive
    Bits/(Pixel*Frame) : 0.234
    Stream size : 777 MiB (91%)
    Writing library : x264 core 130 r2273 b3065e6
    Encoding settings : cabac=0 / ref=3 / deblock=1:-1:-1 / analyse=0x1:0x111 / me=umh / subme=9 / psy=1 / psy_rd=1.00:0.00 / mixed_ref=1 / me_range=32 / chroma_me=1 / trellis=1 / 8x8dct=0 / cqm=0 / deadzone=21,11 / fast_pskip=1 / chroma_qp_offset=-2 / threads=6 / lookahead_threads=1 / sliced_threads=0 / nr=0 / decimate=1 / interlaced=0 / bluray_compat=0 / constrained_intra=0 / bframes=0 / weightp=0 / keyint=250 / keyint_min=25 / scenecut=40 / intra_refresh=0 / rc_lookahead=40 / rc=2pass / mbtree=1 / bitrate=1800 / ratetol=1.0 / qcomp=0.60 / qpmin=4 / qpmax=69 / qpstep=4 / cplxblur=20.0 / qblur=0.5 / vbv_maxrate=5000 / vbv_bufsize=5000 / nal_hrd=none / ip_ratio=1.40 / aq=1:1.00
    Language : Russian
    Encoded date : UTC 2014-11-18 14:24:49
    Tagged date : UTC 2014-11-18 15:00:03
    Color primaries : BT.601 PAL
    Transfer characteristics : BT.709
    Matrix coefficients : BT.601
    Color range : Limited
    Video #2
    ID : 4
    Format : JPEG
    Codec ID : jpeg
    Duration : 1h 0mn
    Bit rate mode : Variable
    Bit rate : 1 832 bps
    Width : 640 pixels
    Height : 480 pixels
    Display aspect ratio : 4:3
    Frame rate mode : Variable
    Frame rate : 0.004 fps
    Minimum frame rate : 0.002 fps
    Maximum frame rate : 0.012 fps
    Color space : YUV
    Chroma subsampling : 4:2:0
    Bit depth : 8 bits
    Compression mode : Lossy
    Bits/(Pixel*Frame) : 1.491
    Stream size : 839 KiB (0%)
    Language : Russian
    Encoded date : UTC 2014-11-19 11:20:17
    Tagged date : UTC 2014-11-19 11:20:17
    Audio
    ID : 2
    Format : AAC
    Format/Info : Advanced Audio Codec
    Format profile : LC
    Codec ID : 40
    Duration : 1h 0mn
    Bit rate mode : Variable
    Bit rate : 160 Kbps
    Maximum bit rate : 285 Kbps
    Channel(s) : 2 channels
    Channel positions : Front: L R
    Sampling rate : 48.0 KHz
    Compression mode : Lossy
    Stream size : 69.3 MiB (8%)
    Language : Russian
    Encoded date : UTC 2014-11-18 14:24:49
    Tagged date : UTC 2014-11-18 15:00:02
    Menu
    ID : 3
    Codec ID : text
    Duration : 1h 0mn
    Language : Russian
    Encoded date : UTC 2014-11-18 14:24:49
    Tagged date : UTC 2014-11-18 15:00:03
    00:00:00.000 : Chapter 1
    00:05:19.200 : Chapter 2
    00:07:31.800 : Chapter 3
    00:13:19.800 : Chapter 4
    00:18:27.600 : Chapter 5
    00:20:04.800 : Chapter 6
    00:24:58.200 : Chapter 7
    00:29:12.600 : Chapter 8
    00:34:33.600 : Chapter 9
    00:37:42.600 : Chapter 10
    00:46:24.000 : Chapter 11
    00:49:54.600 : Chapter 12
    00:51:15.600 : Chapter 13
    00:55:07.800 : Chapter 14
    00:58:40.200 : Chapter 15
    Bit rate mode : VBR

    Скриншоты

    Скачать .torrent

    Скачать торрент-файл бесплатно и на максимальной скорости!

    Как скачивать? · Что такое торрент? · Рейтинг и ограничения

    !ВНИМАНИЕ!
    Сайт не распространяет и не хранит электронные версии произведений, а занимается лишь лишь предоставлением доступа к создаваемому пользователями каталогу ссылок на торрент-файлы, которые содержат только списки хеш-сумм, убедительная просьба с жалобами обращаться напрямую к пользователю. Файлы для обмена на трекере предоставлены пользователями сайта, и администрация не несёт ответственности за их содержание. Просьба не заливать файлы, защищенные авторскими правами, а также файлы нелегального содержания!

    [Профиль] [ЛС]
    Показать сообщения:    
    Ответить на тему

    Текущее время: Сегодня, в 01:58

    Часовой пояс: GMT + 2



    Вы не можете начинать темы
    Вы не можете отвечать на сообщения
    Вы не можете редактировать свои сообщения
    Вы не можете удалять свои сообщения
    Вы не можете голосовать в опросах
    Вы не можете прикреплять файлы к сообщениям
    Вы не можете скачивать файлы