BitTorrentTracker PerecTracker.org
BitTorrentTracker PerecTracker.org
    
Регистрация  ·  Вход
 
 · 
Забыли пароль?

  • Стражи Галактики / Guardians of the Galaxy (2014) BDRip [1080p] ATV [Лицензия]

    Ответить на тему
     
    Автор Сообщение

    rechyn

    Создавать темы 22-Ноя-2014 23:39

           

    [Цитировать]

    - Стражи Галактики / Guardians of the Galaxy
    «Мстители спасают лишь Землю бренную, а эти ребята спасают Вселенную»
    -Год выпуска: 2014
    Производство: США, Великобритания / © 2014 Marvel, All Rights Reserved.
    Жанр: фантастика, боевик, приключения
    Перевод: Дублированный [Лицензия]
    Продолжительность: 02:00:51
    Cубтитры: Вшитые отключаемые
    Язык субтитров: Русский (forced, full, Commentary by Director James Gunn), Английский (full, Commentary by Director James Gunn)
    Режиссер: Джеймс Ганн
    Сценарий: Джеймс Ганн, Николь Перлман, Дэн Абнетт
    Продюсер: Кевин Файги, Виктория Алонсо, Луис Д’Эспозито
    В ролях: Крис Прэтт, Зои Салдана, Дэйв Батиста, Вин Дизель, Брэдли Купер, Ли Пейс, Майкл Рукер, Карен Гиллан, Джимон Хонсу, Джон Си Райли
    Описание:
    Питер Квилл становится жертвой охотников за головами после кражи таинственной сферы, за которой охотился Ронан- могущественный злодей, полный амбиций и угрожающий целой вселенной. Чтобы одолеть Ронана, Питеру приходится объединиться с квартетом отбросов: вооружённым до зубов Ракетным енотом, древоподобным гуманоидом Грутом, смертельно опасной и загадочной Гаморой и мстительным Драксом Разрушителем. Но когда Питер обнаруживает истинную силу сферы и узнаёт насколько она опасна для космоса, он должен сделать всё возможное, чтобы сплотить всех членов команды для последнего противостояния и вернуть баланс во всей Галактике.-
    Дата мировой премьеры: 21 июля 2014
    Дата российской премьеры: 31 июля 2014, «WDSSPR»
    Дата выхода DVD релиза: 2 декабря 2014, «Уолт Дисней Компани СНГ»
    Рейтинг MPAA: PG-13
    Возраст: 12+-Качество: BDRip [720p]
    Видео: MPEG-4 AVC/H.264, 1280x534 (2.40:1), ~5 220 kbps, 23.976 fps
    Аудио 1: Русский - AAC / 2.0 / 170 Kbps / 48.0 KHz - Дублированный
    Аудио 2: Русский - AC3 / 5.1 / 640 Kbps / 48.0 KHz - Дублированный
    Аудио 3: Английский - AAC / 2.0 / 170 Kbps / 48.0 KHz - Оригинальный
    Аудио 4: Английский - AC3 / 5.1 / 448 Kbps / 48.0 KHz - Оригинальный
    Аудио 5: Английский - AC3 / 2.0 / 192 Kbps / 48.0 KHz - Оригинальный (Commentary by Director James Gunn)

    iTunes Meta Tags

    Sort Name: Guardians of the Galax
    XID: Apple:vendor_id:2014-689066
    Content ID: 899347364
    Copyright: © 2014 Marvel
    ScreenWriters: Джеймс Ганн, Николь Перлман, Дэн Абнетт
    Producers: Кевин Файги, Виктория Алонсо, Луис Д’Эспозито
    Director: Джеймс Ганн
    Cast: Крис Прэтт, Зои Салдана, Дэйв Батиста, Брэдли Купер, Вин Дизель, Ли Пейс, Майкл Рукер, Карен Гиллан, Гленн Клоуз, Джимон Хонсу, Андрей Зайцев, Мария Цветкова-Овсянникова, Максим Сергеев, Сергей Куницкий, Вин ДизельDirector: Джеймс Ганн
    Rating: PG-13
    Long Description: Отважному путешественнику Питеру Квиллу попадает в руки таинственный артефакт, принадлежащий могущественному и безжалостному злодею Ронану, строящему коварные планы по захвату Вселенной. Питер оказывается в центре межгалактической охоты, где жертва - он сам. Единственный способ спасти свою жизнь - объединиться с четверкой нелюдимых изгоев: воинственным енотом по кличке Ракета, человекоподобным деревом Грутом, смертельно опасной Гаморой и одержимым жаждой мести Драксом, также известным как Разрушитель. Когда Квилл понимает, какой силой обладает украденный артефакт и какую опасность он представляет для вселенной, одиночка пойдет на все, чтобы сплотить случайных союзников для решающей битвы за судьбу галактики.
    Description: Отважному путешественнику Питеру Квиллу попадает в руки таинственный артефакт, принадлежащий могущественному и безжалостному злодею Ронану, строящему коварные планы по захвату Вселенной. Питер оказывается в центре межгалактической охоты, где жертва -
    Release Date: 2014-07-21T08:00:00Z
    Genre: Action & Adventure
    Artist: James Gunn
    Name: Стражи Галактики
    Comments: «Мстители спасают лишь Землю бренную, а эти ребята спасают Вселенную»

    MediaInfo

    General
    Complete name                            : C:\Downloads\Guardians.of.the.Galaxy.2014.1080p.BDRip.NNM.m4v
    Format                                   : MPEG-4
    Codec ID                                 : M4V
    File size                                : 12.7 GiB
    Duration                                 : 2h 0mn
    Overall bit rate mode                    : Variable
    Overall bit rate                         : 15.0 Mbps
    Movie name                               : Стражи Галактики
    Performer                                : James Gunn
    Genre                                    : Action & Adventure
    ContentType                              : Short Film
    Description                              : Отважному путешественнику Питеру Квиллу попадает в руки таинственный артефакт, принадлежащий могущественному и безжалостному злодею Ронану, строящему коварные планы по захвату Вселенной. Питер оказывается в центре межгалактической охоты, где жертва -
    Recorded date                            : UTC 2014-07-21 08:00:00
    Encoded date                             : UTC 2014-11-20 16:05:33
    Tagged date                              : UTC 2014-11-20 16:10:20
    Copyright                                : © 2014 Marvel
    Cover                                    : Yes
    Comment                                  : «Мстители спасают лишь Землю бренную, а эти ребята спасают Вселенную»
    Title/Sort                               : Guardians of the Galax
    LongDescription                          : Отважному путешественнику Питеру Квиллу попадает в руки таинственный артефакт, принадлежащий могущественному и безжалостному злодею Ронану, строящему коварные планы по захвату Вселенной. Питер оказывается в центре межгалактической охоты, где жертва - он сам. Единственный способ спасти свою жизнь - объединиться с четверкой нелюдимых изгоев: воинственным енотом по кличке Ракета, человекоподобным деревом Грутом, смертельно опасной Гаморой и одержимым жаждой мести Драксом, также известным как Разрушитель. Когда Квилл понимает, какой силой обладает украденный артефакт и какую опасность он представляет для вселенной, одиночка пойдет на все, чтобы сплотить случайных союзников для решающей битвы за судьбу галактики.
    AppleStoreCatalogID                      : 899347364
    Vendor                                   : Apple:vendor_id:2014-689066
    ContentRating                            : mpaa|PG-13|300|
    iTunMOVI                                 :  /  /  /   /   cast /    /     /     name /     Крис Прэтт /     /     /     name /     Зои Салдана /     /     /     name /     Дэйв Батиста /     /     /     name /     Брэдли Купер /     /     /     name /     Вин Дизель /     /     /     name /     Ли Пейс /     /     /     name /     Майкл Рукер /     /     /     name /     Карен Гиллан /     /     /     name /     Гленн Клоуз /     /     /     name /     Джимон Хонсу /     /     /     name /     Андрей Зайцев /     /     /     name /     Мария Цветкова-Овсянникова /     /     /     name /     Максим Сергеев /     /     /     name /     Сергей Куницкий /     /     /     name /     Вин ДизельDirector: Джеймс Ганн /     /    /   directors /    /     /     name /     Джеймс Ганн /     /    /   producers /    /     /     name /     Кевин Файги /     /     /     name /     Виктория Алонсо /     /     /     name /     Луис Д’Эспозито /     /    /   screenwriters /    /     /     name /     Джеймс Ганн /     /     /     name /     Николь Перлман /     /     /     name /     Дэн Абнетт /     /    /   /
    Video
    ID                                       : 1
    Format                                   : AVC
    Format/Info                              : Advanced Video Codec
    Format profile                           : [url=mailto:High@L4.1]High@L4.1[/url]
    Format settings, CABAC                   : Yes
    Format settings, ReFrames                : 5 frames
    Codec ID                                 : avc1
    Codec ID/Info                            : Advanced Video Coding
    Duration                                 : 2h 0mn
    Bit rate                                 : 13.4 Mbps
    Maximum bit rate                         : 43.1 Mbps
    Width                                    : 1 920 pixels
    Height                                   : 800 pixels
    Display aspect ratio                     : 2.40:1
    Frame rate mode                          : Constant
    Frame rate                               : 23.976 fps
    Color space                              : YUV
    Chroma subsampling                       : 4:2:0
    Bit depth                                : 8 bits
    Scan type                                : Progressive
    Bits/(Pixel*Frame)                       : 0.364
    Stream size                              : 11.3 GiB (89%)
    Writing library                          : x264 core 142 r2479kMod dd79a61
    Encoding settings                        : cabac=1 / ref=5 / deblock=1:-3:-3 / analyse=0x3:0x133 / me=umh / subme=11 / psy=1 / fade_compensate=0.00 / psy_rd=1.03:0.00 / mixed_ref=1 / me_range=48 / chroma_me=1 / trellis=2 / 8x8dct=1 / cqm=0 / deadzone=21,11 / fast_pskip=0 / chroma_qp_offset=-2 / threads=18 / lookahead_threads=3 / sliced_threads=0 / nr=0 / decimate=1 / interlaced=0 / bluray_compat=0 / constrained_intra=0 / fgo=0 / bframes=9 / b_pyramid=2 / b_adapt=2 / b_bias=0 / direct=3 / weightb=1 / open_gop=0 / weightp=2 / keyint=250 / keyint_min=23 / scenecut=40 / intra_refresh=0 / rc_lookahead=40 / rc=crf / mbtree=0 / crf=15.8000 / qcomp=0.65 / qpmin=0 / qpmax=69 / qpstep=4 / vbv_maxrate=50000 / vbv_bufsize=62500 / crf_max=0.0 / nal_hrd=none / filler=0 / ip_ratio=1.20 / pb_ratio=1.10 / aq=1:0.81
    Language                                 : English
    Encoded date                             : UTC 2014-11-20 16:05:33
    Tagged date                              : UTC 2014-11-20 16:08:06
    Audio #1
    ID                                       : 2
    Format                                   : AAC
    Format/Info                              : Advanced Audio Codec
    Format profile                           : LC
    Codec ID                                 : 40
    Duration                                 : 2h 0mn
    Bit rate mode                            : Variable
    Bit rate                                 : 168 Kbps
    Maximum bit rate                         : 202 Kbps
    Channel(s)                               : 2 channels
    Channel positions                        : Front: L R
    Sampling rate                            : 48.0 KHz
    Compression mode                         : Lossy
    Stream size                              : 146 MiB (1%)
    Title                                    : DUB
    Language                                 : Russian
    Encoded date                             : UTC 2014-11-20 16:07:42
    Tagged date                              : UTC 2014-11-20 16:08:06
    Audio #2
    ID                                       : 3
    Format                                   : AC-3
    Format/Info                              : Audio Coding 3
    Mode extension                           : CM (complete main)
    Format settings, Endianness              : Big
    Codec ID                                 : ac-3
    Duration                                 : 2h 0mn
    Bit rate mode                            : Constant
    Bit rate                                 : 640 Kbps
    Channel(s)                               : 6 channels
    Channel positions                        : Front: L C R, Side: L R, LFE
    Sampling rate                            : 48.0 KHz
    Bit depth                                : 16 bits
    Compression mode                         : Lossy
    Stream size                              : 553 MiB (4%)
    Title                                    : DUB
    Language                                 : Russian
    Encoded date                             : UTC 2014-11-20 16:07:48
    Tagged date                              : UTC 2014-11-20 16:08:06
    Audio #3
    ID                                       : 4
    Format                                   : AAC
    Format/Info                              : Advanced Audio Codec
    Format profile                           : LC
    Codec ID                                 : 40
    Duration                                 : 2h 0mn
    Bit rate mode                            : Variable
    Bit rate                                 : 176 Kbps
    Maximum bit rate                         : 209 Kbps
    Channel(s)                               : 2 channels
    Channel positions                        : Front: L R
    Sampling rate                            : 48.0 KHz
    Compression mode                         : Lossy
    Stream size                              : 152 MiB (1%)
    Title                                    : original
    Language                                 : English
    Encoded date                             : UTC 2014-11-20 16:07:53
    Tagged date                              : UTC 2014-11-20 16:08:06
    Audio #4
    ID                                       : 5
    Format                                   : AC-3
    Format/Info                              : Audio Coding 3
    Mode extension                           : CM (complete main)
    Format settings, Endianness              : Big
    Codec ID                                 : ac-3
    Duration                                 : 2h 0mn
    Bit rate mode                            : Constant
    Bit rate                                 : 448 Kbps
    Channel(s)                               : 6 channels
    Channel positions                        : Front: L C R, Side: L R, LFE
    Sampling rate                            : 48.0 KHz
    Bit depth                                : 16 bits
    Compression mode                         : Lossy
    Stream size                              : 387 MiB (3%)
    Title                                    : original
    Language                                 : English
    Encoded date                             : UTC 2014-11-20 16:07:58
    Tagged date                              : UTC 2014-11-20 16:08:06
    Audio #5
    ID                                       : 6
    Format                                   : AC-3
    Format/Info                              : Audio Coding 3
    Mode extension                           : CM (complete main)
    Format settings, Endianness              : Big
    Codec ID                                 : ac-3
    Duration                                 : 2h 0mn
    Bit rate mode                            : Constant
    Bit rate                                 : 192 Kbps
    Channel(s)                               : 2 channels
    Channel positions                        : Front: L R
    Sampling rate                            : 48.0 KHz
    Bit depth                                : 16 bits
    Compression mode                         : Lossy
    Stream size                              : 166 MiB (1%)
    Title                                    : Commentary by Director James Gunn
    Language                                 : English
    Encoded date                             : UTC 2014-11-20 16:08:02
    Tagged date                              : UTC 2014-11-20 16:08:06
    Text #1
    ID                                       : 7
    Format                                   : Timed Text
    Muxing mode                              : sbtl
    Codec ID                                 : tx3g
    Duration                                 : 1h 53mn
    Bit rate mode                            : Variable
    Bit rate                                 : 1 bps
    Stream size                              : 503 Bytes (0%)
    Title                                    : forced
    Language                                 : Russian
    Encoded date                             : UTC 2014-11-20 16:08:05
    Tagged date                              : UTC 2014-11-20 16:08:06
    Text #2
    ID                                       : 8
    Format                                   : Timed Text
    Muxing mode                              : sbtl
    Codec ID                                 : tx3g
    Duration                                 : 2h 0mn
    Bit rate mode                            : Variable
    Bit rate                                 : 80 bps
    Stream size                              : 71.0 KiB (0%)
    Title                                    : full
    Language                                 : Russian
    Encoded date                             : UTC 2014-11-20 16:08:05
    Tagged date                              : UTC 2014-11-20 16:08:06
    Text #3
    ID                                       : 9
    Format                                   : Timed Text
    Muxing mode                              : sbtl
    Codec ID                                 : tx3g
    Duration                                 : 2h 0mn
    Bit rate mode                            : Variable
    Bit rate                                 : 233 bps
    Stream size                              : 206 KiB (0%)
    Title                                    : Commentary by Director James Gunn
    Language                                 : Russian
    Encoded date                             : UTC 2014-11-20 16:08:05
    Tagged date                              : UTC 2014-11-20 16:08:06
    Text #4
    ID                                       : 10
    Format                                   : Timed Text
    Muxing mode                              : sbtl
    Codec ID                                 : tx3g
    Duration                                 : 2h 0mn
    Bit rate mode                            : Variable
    Bit rate                                 : 55 bps
    Stream size                              : 49.0 KiB (0%)
    Language                                 : English
    Encoded date                             : UTC 2014-11-20 16:08:05
    Tagged date                              : UTC 2014-11-20 16:08:06
    Text #5
    ID                                       : 11
    Format                                   : Timed Text
    Muxing mode                              : sbtl
    Codec ID                                 : tx3g
    Duration                                 : 2h 0mn
    Bit rate mode                            : Variable
    Bit rate                                 : 193 bps
    Stream size                              : 171 KiB (0%)
    Title                                    : Commentary by Director James Gunn
    Language                                 : English
    Encoded date                             : UTC 2014-11-20 16:08:05
    Tagged date                              : UTC 2014-11-20 16:08:06
    Menu
    ID                                       : 12
    Codec ID                                 : text
    Duration                                 : 2h 0mn
    Encoded date                             : UTC 2014-11-20 16:10:14
    Tagged date                              : UTC 2014-11-20 16:10:14
    Bit rate mode                            : CBR
    Скриншоты:-
    Скачать .torrent

    Скачать торрент-файл бесплатно и на максимальной скорости!

    Как скачивать? · Что такое торрент? · Рейтинг и ограничения

    !ВНИМАНИЕ!
    Сайт не распространяет и не хранит электронные версии произведений, а занимается лишь лишь предоставлением доступа к создаваемому пользователями каталогу ссылок на торрент-файлы, которые содержат только списки хеш-сумм, убедительная просьба с жалобами обращаться напрямую к пользователю. Файлы для обмена на трекере предоставлены пользователями сайта, и администрация не несёт ответственности за их содержание. Просьба не заливать файлы, защищенные авторскими правами, а также файлы нелегального содержания!


    _________________
    [Профиль] [ЛС]
    Показать сообщения:    
    Ответить на тему

    Текущее время: Сегодня, в 22:22

    Часовой пояс: GMT + 2



    Вы не можете начинать темы
    Вы не можете отвечать на сообщения
    Вы не можете редактировать свои сообщения
    Вы не можете удалять свои сообщения
    Вы не можете голосовать в опросах
    Вы не можете прикреплять файлы к сообщениям
    Вы не можете скачивать файлы