BitTorrentTracker PerecTracker.org
BitTorrentTracker PerecTracker.org
    
Регистрация  ·  Вход
 
 · 
Забыли пароль?

  • Большая кража / The Big Bounce (Джордж Армитейдж / George Armitage) [2004, США, комедия, триллер, криминал, WEB-DLRip] DVO (ТК Россия) + MVO + Sub Eng + Original Eng

    Ответить на тему
     
    Автор Сообщение

    Columb

    Создавать темы 22-Ноя-2014 20:07

           

    [Цитировать]

    Большая кража / The Big Bounce
    Страна: США
    Жанр: комедия, триллер, криминал
    Год выпуска: 2004
    Продолжительность: 01:28:10
    Перевод: Профессиональный (двухголосый закадровый) - ТК Россия
    Перевод: Профессиональный (многоголосый закадровый)
    Cубтитры: английские
    Оригинальная аудиодорожка: английский

    Режиссер: Джордж Армитейдж / George Armitage
    В ролях: Оуэн Уилсон, Морган Фриман, Чарли Шин, Винни Джонс, Грегори Спорледер, Terry Ahue, Пит Джонсон, Майк Ренфро, Тони Дорсетт
    Описание: Что и говорить, а жизнь у Джека Райана — что надо: катается себе на доске, плавает в океане, да греется на солнышке! А чтобы хватало на пивко, наш обаятельный герой изящно прикарманивает себе все, что «плохо лежит«: так, «по мелочам», ничего серьезного — тут чужой кошелек прихватит, там портмоне. Однако все сразу меняется, когда на горизонте у Джека появляется очаровательное создание с волнующими формами — светловолосая богиня, которая ненавязчиво предлагает ему зайти на минутку в чужой дом и выйти богатым человеком!
    Качество видео: ]WEB-DLRip
    Формат видео: AVI
    Видео: 704x400 (1.76:1), 23.976 fps, XviD build 73 ~2128 kbps avg, 0.32 bit/pixel
    Аудио: 48 kHz, AC3 Dolby Digital, 2/0 (L,R) ch, ~224 kbps - Россия
    отдельными файлами:
    Аудио: 48 kHz, AC3 Dolby Digital, 3/2 (L,C,R,l,r) + LFE ch, ~384 kbps - многоголосый
    Аудио: 48 kHz, AC3 Dolby Digital, 3/2 (L,C,R,l,r) + LFE ch, ~448 kbps - оригинал

    MediaInfo

    Общее
    Полное имя : J:\The.Big.Bounce.2004.web-dlrip_[1.46]_[teko]\The.Big.Bounce.2004.web-dlrip_[1.46].avi
    Формат : AVI
    Формат/Информация : Audio Video Interleave
    Размер файла : 1,45 Гбайт
    Продолжительность : 1 ч. 28 м.
    Общий поток : 2362 Кбит/сек
    Программа кодирования : VirtualDubMod 1.5.10.3 | www.virtualdub-fr.org || (build 2550/release)
    Библиотека кодирования : VirtualDubMod build 2550/release
    Видео
    Идентификатор : 0
    Формат : MPEG-4 Visual
    Профиль формата : Advanced Simple@L5
    Параметр BVOP формата : 1
    Параметр QPel формата : Нет
    Параметр GMC формата : Без точки перехода
    Параметр матрицы формата : Выборочная
    Идентификатор кодека : XVID
    Идентификатор кодека/Подсказка : XviD
    Продолжительность : 1 ч. 28 м.
    Битрейт : 2129 Кбит/сек
    Ширина : 704 пикселя
    Высота : 400 пикселей
    Соотношение сторон : 16:9
    Частота кадров : 23,976 кадра/сек
    Цветовое пространство : YUV
    Субдискретизация насыщенности : 4:2:0
    Битовая глубина : 8 бит
    Тип развёртки : Прогрессивная
    Метод сжатия : С потерями
    Бит/(Пиксели*Кадры) : 0.315
    Размер потока : 1,31 Гбайт (90%)
    Библиотека кодирования : XviD 73
    Аудио
    Идентификатор : 1
    Формат : AC-3
    Формат/Информация : Audio Coding 3
    Расширение режима : CM (complete main)
    Параметр Endianness формата : Big
    Идентификатор кодека : 2000
    Продолжительность : 1 ч. 28 м.
    Вид битрейта : Постоянный
    Битрейт : 224 Кбит/сек
    Каналы : 2 канала
    Расположение каналов : Front: L R
    Частота : 48,0 КГц
    Битовая глубина : 16 бит
    Метод сжатия : С потерями
    Размер потока : 141 Мбайт (9%)
    Выравнивание : Разделение по промежуткам
    Продолжительность промежутка : 42 мс. (1,00 видеокадр)
    Время предзагрузки промежутка : 500 мс.

    Скриншоты

    Скачать .torrent

    Скачать торрент-файл бесплатно и на максимальной скорости!

    Как скачивать? · Что такое торрент? · Рейтинг и ограничения

    !ВНИМАНИЕ!
    Сайт не распространяет и не хранит электронные версии произведений, а занимается лишь лишь предоставлением доступа к создаваемому пользователями каталогу ссылок на торрент-файлы, которые содержат только списки хеш-сумм, убедительная просьба с жалобами обращаться напрямую к пользователю. Файлы для обмена на трекере предоставлены пользователями сайта, и администрация не несёт ответственности за их содержание. Просьба не заливать файлы, защищенные авторскими правами, а также файлы нелегального содержания!

    [Профиль] [ЛС]
    Показать сообщения:    
    Ответить на тему

    Текущее время: Сегодня, в 16:18

    Часовой пояс: GMT + 2



    Вы не можете начинать темы
    Вы не можете отвечать на сообщения
    Вы не можете редактировать свои сообщения
    Вы не можете удалять свои сообщения
    Вы не можете голосовать в опросах
    Вы не можете прикреплять файлы к сообщениям
    Вы не можете скачивать файлы