BitTorrentTracker PerecTracker.org
BitTorrentTracker PerecTracker.org
    
Регистрация  ·  Вход
 
 · 
Забыли пароль?

  • Земля обетованная / Ziemia obiecana / Promised Land (Анджей Вайда / Andrzej Wajda) [1975, Польша, драма, DVDRip] [Полная первоначальная версия] MVO + Original (Pol)

    Ответить на тему
     
    Автор Сообщение

    Columb

    Создавать темы 16-Ноя-2014 12:12

           

    [Цитировать]

    Земля обетованная / Ziemia obiecana / Promised Land [Полная первоначальная версия]
    Год выпуска: 1975
    Страна: Польша
    Жанр: драма
    Продолжительность: 02:42:49
    Перевод: Профессиональный (многоголосый, закадровый)
    Субтитры: нет
    Оригинальная аудио дорожка: польский
    Режиссер: Анджей Вайда / Andrzej Wajda
    В ролях: Даниэль Ольбрыхский (Karol Borowiecki), Войцех Пшоняк (Moryc Welt), Анджей Северин (Maks Baum), Анна Нехребецка (Anka Kurowska), Тадеуш Бялощиньский (Ojciec Karola - Karol's Father), Божена Дыкель (Mada Müller), Франчишек Печка (Müller), Данута Водыньска (Müllerowa), Мариан Глинка (Wilhelm Müller), Анджей Шалявский (Herman Bucholz), Ядвига Анджеевская (Bucholzowa), Калина Едрусик (Lucy Zuckerowa)-Бюджет: PLN 31 300 000
    Мировая премьера: 21 февраля 1975-Описание: Трое молодых людей, выпускник коммерческого училища польский шляхтич Кароль Боровецкий, еврейский биржевой маклер Мориц Вельт и немецкий коммерсант Макс Баум, решают организовать собственное дело - построить самую крупную в городе ткацкую фабрику...-[/url]Рейтинг
    : 8.167 (187)
    : 8.00 (1605)
    -Качество: DVDRip
    Формат: AVI //SAMPLE//
    Видео: 672x400 (1.68:1), 25 fps, XviD build 65 ~1528 kbps avg, 0.23 bit/pixel
    Аудио RUS: 48 kHz, AC3 Dolby Digital, 2/0 (L,R) ch, ~192 kbps - MVO
    Аудио POL: 48 kHz, AC3 Dolby Digital, 2/0 (L,R) ch, ~192 kbps - Original

    MediaInfo

    Общее
    Полное имя : F:\Video\AVI\Films\Zemlja.Obetovannaja.1975.DUAL.DVDRip.XviD.AC3.-AllFilms.avi
    Формат : AVI
    Формат/Информация : Audio Video Interleave
    Профиль формата : OpenDML
    Размер файла : 2,18 Гбайт
    Продолжительность : 2 ч. 42 м.
    Общий поток : 1919 Кбит/сек
    Название фильма : Земля обетованная / Ziemia obiecana / Promised Land [Полная первоначальная версия] (1975)
    Режиссёр : Shevon (DVD9)
    Программа кодирования : VirtualDubMod 1.5.10.3 | www.virtualdub-fr.org || (build 2550/release)
    Правообладатель : AllFilms (rutracker.org)
    Видео
    Идентификатор : 0
    Формат : MPEG-4 Visual
    Профиль формата : Advanced Simple@L5
    Параметр BVOP формата : 1
    Параметр QPel формата : Нет
    Параметр GMC формата : Без точки перехода
    Параметр матрицы формата : Выборочная
    Идентификатор кодека : XVID
    Идентификатор кодека/Подсказка : XviD
    Продолжительность : 2 ч. 42 м.
    Битрейт : 1517 Кбит/сек
    Ширина : 672 пикселя
    Высота : 400 пикселей
    Соотношение сторон : 1,680
    Частота кадров : 25,000 кадров/сек
    Цветовое пространство : YUV
    Субдискретизация насыщенности : 4:2:0
    Битовая глубина : 8 бит
    Тип развёртки : Прогрессивная
    Метод сжатия : С потерями
    Бит/(Пиксели*Кадры) : 0.226
    Размер потока : 1,73 Гбайт (79%)
    Библиотека кодирования : XviD 65
    Аудио #1
    Идентификатор : 1
    Формат : AC-3
    Формат/Информация : Audio Coding 3
    Расширение режима : CM (complete main)
    Параметр Endianness формата : Big
    Идентификатор кодека : 2000
    Продолжительность : 2 ч. 42 м.
    Вид битрейта : Постоянный
    Битрейт : 192 Кбит/сек
    Каналы : 2 канала
    Расположение каналов : Front: L R
    Частота : 48,0 КГц
    Битовая глубина : 16 бит
    Метод сжатия : С потерями
    Размер потока : 223 Мбайт (10%)
    Выравнивание : Разделение по промежуткам
    Продолжительность промежутка : 40 мс. (1,00 видеокадр)
    Время предзагрузки промежутка : 500 мс.
    Аудио #2
    Идентификатор : 2
    Формат : AC-3
    Формат/Информация : Audio Coding 3
    Расширение режима : CM (complete main)
    Параметр Endianness формата : Big
    Идентификатор кодека : 2000
    Продолжительность : 2 ч. 42 м.
    Вид битрейта : Постоянный
    Битрейт : 192 Кбит/сек
    Каналы : 2 канала
    Расположение каналов : Front: L R
    Частота : 48,0 КГц
    Битовая глубина : 16 бит
    Метод сжатия : С потерями
    Размер потока : 223 Мбайт (10%)
    Выравнивание : Разделение по промежуткам
    Продолжительность промежутка : 40 мс. (1,00 видеокадр)
    Время предзагрузки промежутка : 500 мс.

    Скриншоты

    -
    Скачать .torrent

    Скачать торрент-файл бесплатно и на максимальной скорости!

    Как скачивать? · Что такое торрент? · Рейтинг и ограничения

    !ВНИМАНИЕ!
    Сайт не распространяет и не хранит электронные версии произведений, а занимается лишь лишь предоставлением доступа к создаваемому пользователями каталогу ссылок на торрент-файлы, которые содержат только списки хеш-сумм, убедительная просьба с жалобами обращаться напрямую к пользователю. Файлы для обмена на трекере предоставлены пользователями сайта, и администрация не несёт ответственности за их содержание. Просьба не заливать файлы, защищенные авторскими правами, а также файлы нелегального содержания!

    [Профиль] [ЛС]
    Показать сообщения:    
    Ответить на тему

    Текущее время: Сегодня, в 08:04

    Часовой пояс: GMT + 2



    Вы не можете начинать темы
    Вы не можете отвечать на сообщения
    Вы не можете редактировать свои сообщения
    Вы не можете удалять свои сообщения
    Вы не можете голосовать в опросах
    Вы не можете прикреплять файлы к сообщениям
    Вы не можете скачивать файлы