BitTorrentTracker PerecTracker.org
BitTorrentTracker PerecTracker.org
    
Регистрация  ·  Вход
 
 · 
Забыли пароль?

  • Одна треть / One Third / Sanbun no ichi (Хироши Шинагава / Hiroshi Shinagawa) [2014, Япония, драма, HDRip] Original Jap + Sub (rus) [Tenshi1effect]

    Ответить на тему
     
    Автор Сообщение

    Columb

    Создавать темы 16-Ноя-2014 11:23

           

    [Цитировать]

    Одна треть / One Third / Sanbun no ichi--Страна: Япония
    Жанр: драма
    Год выпуска: 2014
    Продолжительность: 01:59:49-Перевод: Субтитры [Tenshi1effect]-Cубтитры: русские [вшитые]
    Оригинальная аудиодорожка: японский
    Режиссер: Хироши Шинагава / Hiroshi Shinagawa
    В ролях: Тацуя Фудзивара, Коки Танака, Рюйчи Косуги, Мицу Дан, Масаки Сумитани, Ёскэ Кубодзука, Дайсукэ Мацуда, Питер, Хироши Шинагава
    Описание: Менеджер (Шу), официант (Кодзи) и постоянный клиент (Кен) ночного клуба "Сладкий зайчик" решают ограбить банк.
    Еще до ограбления они договорились разделить деньги на троих в равной степени, но что будет после? Получит ли каждый треть суммы? Не будет ли обманутых? Не заинтересован ли кто-то еще в этих деньгах? Кому достанутся деньги в итоге и чем закончится эта история? Вы получите ответы на все вопросы, только посмотрев этот фильм... до самого конца.
    Релиз от -
    Сэмпл: http://multi-up.com/1013482
    Качество видео: HDRip
    Формат видео: AVI
    Видео: MPEG-4 Visual at 1292 Кбит/сек; 720 x 304 (2.368) at 23.976 fps
    Аудио: AC-3 at 448 Кбит/сек; 6 каналов, 48,0 КГц
    Автор -

    MediaInfo

    Общее
    Полное имя : D:\Фильмы\Азиатские\Одна треть\One Third.2014.HDRip.XviD.1400MB. rip by [Assassin's Creed].avi
    Формат : AVI
    Формат/Информация : Audio Video Interleave
    Размер файла : 1,46 Гбайт
    Продолжительность : 1 ч. 59 м.
    Общий поток : 1749 Кбит/сек
    Программа кодирования : VirtualDubMod 1.5.10.3 | www.virtualdub-fr.org || (build 2550/release)
    Библиотека кодирования : VirtualDubMod build 2550/release
    Видео
    Идентификатор : 0
    Формат : MPEG-4 Visual
    Профиль формата : Advanced Simple@L5
    Параметр BVOP формата : 1
    Параметр QPel формата : Нет
    Параметр GMC формата : Без точки перехода
    Параметр матрицы формата : Default (MPEG)
    Идентификатор кодека : XVID
    Идентификатор кодека/Подсказка : XviD
    Продолжительность : 1 ч. 59 м.
    Битрейт : 1292 Кбит/сек
    Ширина : 720 пикселей
    Высота : 304 пикселя
    Соотношение сторон : 2,35:1
    Частота кадров : 23,976 кадра/сек
    Цветовое пространство : YUV
    Субдискретизация насыщенности : 4:2:0
    Битовая глубина : 8 бит
    Тип развёртки : Прогрессивная
    Метод сжатия : С потерями
    Бит/(Пиксели*Кадры) : 0.246
    Размер потока : 1,08 Гбайт (74%)
    Библиотека кодирования : XviD 1.2.1 (UTC 2008-12-04)
    Аудио
    Идентификатор : 1
    Формат : AC-3
    Формат/Информация : Audio Coding 3
    Расширение режима : CM (complete main)
    Параметр Endianness формата : Big
    Идентификатор кодека : 2000
    Продолжительность : 1 ч. 59 м.
    Вид битрейта : Постоянный
    Битрейт : 448 Кбит/сек
    Каналы : 6 каналов
    Расположение каналов : Front: L C R, Side: L R, LFE
    Частота : 48,0 КГц
    Битовая глубина : 16 бит
    Метод сжатия : С потерями
    Размер потока : 384 Мбайт (26%)
    Выравнивание : Разделение по промежуткам
    Продолжительность промежутка : 42 мс. (1,00 видеокадр)
    Время предзагрузки промежутка : 500 мс.

    Скриншот c названием фильма

    Скриншоты

    Скачать .torrent

    Скачать торрент-файл бесплатно и на максимальной скорости!

    Как скачивать? · Что такое торрент? · Рейтинг и ограничения

    !ВНИМАНИЕ!
    Сайт не распространяет и не хранит электронные версии произведений, а занимается лишь лишь предоставлением доступа к создаваемому пользователями каталогу ссылок на торрент-файлы, которые содержат только списки хеш-сумм, убедительная просьба с жалобами обращаться напрямую к пользователю. Файлы для обмена на трекере предоставлены пользователями сайта, и администрация не несёт ответственности за их содержание. Просьба не заливать файлы, защищенные авторскими правами, а также файлы нелегального содержания!

    [Профиль] [ЛС]
    Показать сообщения:    
    Ответить на тему

    Текущее время: Сегодня, в 01:12

    Часовой пояс: GMT + 2



    Вы не можете начинать темы
    Вы не можете отвечать на сообщения
    Вы не можете редактировать свои сообщения
    Вы не можете удалять свои сообщения
    Вы не можете голосовать в опросах
    Вы не можете прикреплять файлы к сообщениям
    Вы не можете скачивать файлы