BitTorrentTracker PerecTracker.org
BitTorrentTracker PerecTracker.org
    
Регистрация  ·  Вход
 
 · 
Забыли пароль?

  • Герои Келли / Kelly's Heroes (Брайан Дж. Хаттон / Brian G. Hutton) [1970, США, Югославия, боевик, комедия, приключения, военный, BDRip] AVO (А.Гаврилов) + AVO (Ю.Живов)

    Ответить на тему
     
    Автор Сообщение

    Columb

    Создавать темы 16-Ноя-2014 11:16

           

    [Цитировать]

    Герои Келли / Kelly's Heroes

    Страна: США, Югославия
    Жанр: боевик, комедия, приключения, военный
    Год выпуска: 1970
    Продолжительность: 02:23:31
    Перевод: Авторский (одноголосый закадровый) А.Гаврилов
    Перевод 2: Авторский (одноголосый закадровый) Ю.Живов
    Cубтитры: нет
    Режиссер: Брайан Дж. Хаттон / Brian G. Hutton
    В ролях: Клинт Иствуд / Clint Eastwood, Телли Савалас / Telly Savalas, Дон Риклз / Don Rickles, Кэррол О’Коннор / Carroll O'Connor, Дональд Сазерленд / Donald Sutherland, Гэвин МакЛауд / Gavin MacLeod, Хэл Бакли / Hal Buckley, Стюарт Марголин / Stuart Margolin, Джеф Моррис / Jeff Morris, Ричард Давалос / Richard Davalos и др.
    Описание: Вторая мировая война, Европа. Сержант Келли (Иствуд) узнает от пленного офицера, что в тылу у немцев есть банк с приличным запасом золота. Келли набирает группу сорвиголов и грабит банк, причем бой за золото перерастает в сражение, чуть ли не решающее весь исход войны в Европе. Как вы понимаете, все это не совсем всерьез, но удовольствия выше крыши. (М. Иванов)
    Доп. информация:
    Релиз от DeASS
    Цитата:
    Цитата:

    Рип от kingsize87 За дорогу Живова спасибо anton966. За дорогу Гаврилова спасибо budulai-8.
    В проекте по переводу фильма у Живова участвовали: Linnan, ElenaS76, Джосс, Андря, Wolf_Larsen, _48ronin_, Letyoha3, SavineX, Агент 47, zetrob, аноним, fly32, Comandante.
    Сэмпл: https://yadi.sk/i/Xejhsg8WcjbFt
    Качество видео: BDRip
    Формат видео: AVI
    Видео: 720x304 (2.37:1), 23.976 fps, XviD build 50 ~2243 kbps avg, 0.43 bit/pixel
    Аудио: 48 kHz, AC3 Dolby Digital, 2/0 (L,R) ch, ~192 kbps А.Гаврилов
    Аудио 2: 48 kHz, AC3 Dolby Digital, 3/2 (L,C,R,l,r) + LFE ch, ~448 kbps Ю.Живов

    MediaInfo

    Герои Келли - Kelly's Heroes [by DeASS].avi
    Format : AVI
    Format/Info : Audio Video Interleave
    Format profile : OpenDML
    File size : 2.91 GiB
    Duration : 2h 23mn
    Overall bit rate : 2 899 Kbps
    Movie name : Geroi.Kelli.1970.DUAL.BDRip.XviD.AC3.-HQCLUB
    Director : kingsize87
    Writing application : VirtualDubMod 1.5.10.3 (build 2550/release)
    Writing library : VirtualDubMod build 2550/release
    Copyright : http://hqclub.net/
    Comment : 17.06.2010
    Video
    ID : 0
    Format : MPEG-4 Visual
    Format profile : Advanced Simple@L5
    Format settings, BVOP : 1
    Format settings, QPel : No
    Format settings, GMC : No warppoints
    Format settings, Matrix : Custom
    Codec ID : XVID
    Codec ID/Hint : XviD
    Duration : 2h 23mn
    Bit rate : 2 243 Kbps
    Width : 720 pixels
    Height : 304 pixels
    Display aspect ratio : 2.35:1
    Frame rate : 23.976 fps
    Color space : YUV
    Chroma subsampling : 4:2:0
    Bit depth : 8 bits
    Scan type : Progressive
    Compression mode : Lossy
    Bits/(Pixel*Frame) : 0.427
    Stream size : 2.25 GiB (77%)
    Writing library : XviD 1.2.1 (UTC 2008-12-04)
    Audio #1
    ID : 1
    Format : AC-3
    Format/Info : Audio Coding 3
    Mode extension : CM (complete main)
    Format settings, Endianness : Big
    Codec ID : 2000
    Duration : 2h 23mn
    Bit rate mode : Constant
    Bit rate : 192 Kbps
    Channel(s) : 2 channels
    Channel positions : Front: L R
    Sampling rate : 48.0 KHz
    Bit depth : 16 bits
    Compression mode : Lossy
    Stream size : 197 MiB (7%)
    Alignment : Split accross interleaves
    Interleave, duration : 42 ms (1.00 video frame)
    Interleave, preload duration : 500 ms
    Audio #2
    ID : 2
    Format : AC-3
    Format/Info : Audio Coding 3
    Mode extension : CM (complete main)
    Format settings, Endianness : Big
    Codec ID : 2000
    Duration : 2h 23mn
    Bit rate mode : Constant
    Bit rate : 448 Kbps
    Channel(s) : 6 channels
    Channel positions : Front: L C R, Side: L R, LFE
    Sampling rate : 48.0 KHz
    Bit depth : 16 bits
    Compression mode : Lossy
    Stream size : 460 MiB (15%)
    Alignment : Split accross interleaves
    Interleave, duration : 42 ms (1.00 video frame)
    Interleave, preload duration : 500 ms

    Скриншоты


    Скачать .torrent

    Скачать торрент-файл бесплатно и на максимальной скорости!

    Как скачивать? · Что такое торрент? · Рейтинг и ограничения

    !ВНИМАНИЕ!
    Сайт не распространяет и не хранит электронные версии произведений, а занимается лишь лишь предоставлением доступа к создаваемому пользователями каталогу ссылок на торрент-файлы, которые содержат только списки хеш-сумм, убедительная просьба с жалобами обращаться напрямую к пользователю. Файлы для обмена на трекере предоставлены пользователями сайта, и администрация не несёт ответственности за их содержание. Просьба не заливать файлы, защищенные авторскими правами, а также файлы нелегального содержания!

    [Профиль] [ЛС]
    Показать сообщения:    
    Ответить на тему

    Текущее время: Сегодня, в 02:31

    Часовой пояс: GMT + 2



    Вы не можете начинать темы
    Вы не можете отвечать на сообщения
    Вы не можете редактировать свои сообщения
    Вы не можете удалять свои сообщения
    Вы не можете голосовать в опросах
    Вы не можете прикреплять файлы к сообщениям
    Вы не можете скачивать файлы