Register  ·  Log in
Forgot password?

  • Ночь вопросов (Татьяна Магар) [1993, Украина, Мелодрама, DVB]

    Reply to topic
    Author Message


    Post 16-Nov-2014 12:13



    Ночь вопросов
    Страна: Украина
    Жанр: Мелодрама
    Год выпуска: 1993
    Продолжительность: 1:35:59
    Перевод: Не требуется
    Режиссер: Татьяна Магар
    В ролях: Ивар Калныньш, Вера Глаголева, Любовь Демчук, Алексей Серебряков, Светлана Рунцова, Татьяна Шелига, Юлия Нестранская, Анатолий Хостикоев, Костя Чернявский, Владимир Горянский, Светлана Шиляева
    Описание: Юрий – хирург экстракласса, в которого влюблены все медсестры, накануне Нового года расстается со своей женой Екатериной. И надо же было такому случиться, что в новогоднюю ночь в дверь к одинокому мужчине постучится "звездная" любовь!
    Доп. информация: Производство: Конвент
    Качество видео: DVB
    Формат видео: MPEG-PS
    Видео: MPEG Video , 720x576(4:3), 25,000 кадров/сек, 3 337 Kbps
    Аудио: AC3 , 48 kHz , 192.00 kbps avg , 2/0 (L,R) ch


    Complete name Ночь вопросов 1993.mpg
    Format : MPEG-PS
    File size : 2.41 GiB
    Duration : 1h 35mn
    Overall bit rate : 3 600 Kbps
    ID : 224 (0xE0)
    Format : MPEG Video
    Format version : Version 2
    Format profile : Main@Main
    Format settings, BVOP : Yes
    Format settings, Matrix : Custom
    Format settings, GOP : M=3, N=24
    Format settings, picture structure : Frame
    Duration : 1h 35mn
    Bit rate : 3 337 Kbps
    Maximum bit rate : 3 400 Kbps
    Width : 720 pixels
    Height : 576 pixels
    Display aspect ratio : 4:3
    Frame rate : 25.000 fps
    Standard : PAL
    Color space : YUV
    Chroma subsampling : 4:2:0
    Bit depth : 8 bits
    Scan type : Interlaced
    Scan order : Top Field First
    Compression mode : Lossy
    Bits/(Pixel*Frame) : 0.322
    Time code of first frame : 00:25:35:00
    Time code source : Group of pictures header
    Stream size : 2.24 GiB (93%)
    ID : 189 (0xBD)-128 (0x80)
    Format : AC-3
    Format/Info : Audio Coding 3
    Mode extension : CM (complete main)
    Format settings, Endianness : Big
    Muxing mode : DVD-Video
    Duration : 1h 35mn
    Bit rate mode : Constant
    Bit rate : 192 Kbps
    Channel(s) : 2 channels
    Channel positions : Front: L R
    Sampling rate : 48.0 KHz
    Bit depth : 16 bits
    Compression mode : Lossy
    Stream size : 132 MiB (5%)

    Скриншот c названием фильма


    Download .torrent

    Download free and at maximum speed!

    How to Download? · What is a torrent? · Ratings and Limitations

    The site does not extend and does not store electronic(digital) versions of products, and only gives access to a reference catalogue created by users on torrent-files which contain only lists of the hash-sums, the earnest entreaty, with complaints(abuse) to access directly to the user. Files for an exchange on tracker are given by users of a site, and the administration does not bear the responsibility for their maintenance. The request to not fill in the files protected by copyrights, and also files of the illegal maintenance!

    [Profile] [PM]
    Display posts from previous:    
    Reply to topic

    The time now is: Today 12:27

    All times are GMT + 3 Hours

    You cannot post new topics in this forum
    You cannot reply to topics in this forum
    You cannot edit your posts in this forum
    You cannot delete your posts in this forum
    You cannot vote in polls in this forum
    You cannot attach files in this forum
    You cannot download files in this forum