BitTorrentTracker PerecTracker.org
BitTorrentTracker PerecTracker.org
    
Регистрация  ·  Вход
 
 · 
Забыли пароль?

  • Ночь вопросов (Татьяна Магар) [1993, Украина, Мелодрама, DVB]

    Ответить на тему
     
    Автор Сообщение

    Columb

    Создавать темы 16-Ноя-2014 11:13

           

    [Цитировать]

    Ночь вопросов
    Страна: Украина
    Жанр: Мелодрама
    Год выпуска: 1993
    Продолжительность: 1:35:59
    Перевод: Не требуется
    Режиссер: Татьяна Магар
    В ролях: Ивар Калныньш, Вера Глаголева, Любовь Демчук, Алексей Серебряков, Светлана Рунцова, Татьяна Шелига, Юлия Нестранская, Анатолий Хостикоев, Костя Чернявский, Владимир Горянский, Светлана Шиляева
    Описание: Юрий – хирург экстракласса, в которого влюблены все медсестры, накануне Нового года расстается со своей женой Екатериной. И надо же было такому случиться, что в новогоднюю ночь в дверь к одинокому мужчине постучится "звездная" любовь!
    Доп. информация: Производство: Конвент
    Сэмпл: https://www.sendspace.com/file/kw8wiu
    Качество видео: DVB
    Формат видео: MPEG-PS
    Видео: MPEG Video , 720x576(4:3), 25,000 кадров/сек, 3 337 Kbps
    Аудио: AC3 , 48 kHz , 192.00 kbps avg , 2/0 (L,R) ch

    MediaInfo

    Complete name Ночь вопросов 1993.mpg
    Format : MPEG-PS
    File size : 2.41 GiB
    Duration : 1h 35mn
    Overall bit rate : 3 600 Kbps
    Video
    ID : 224 (0xE0)
    Format : MPEG Video
    Format version : Version 2
    Format profile : Main@Main
    Format settings, BVOP : Yes
    Format settings, Matrix : Custom
    Format settings, GOP : M=3, N=24
    Format settings, picture structure : Frame
    Duration : 1h 35mn
    Bit rate : 3 337 Kbps
    Maximum bit rate : 3 400 Kbps
    Width : 720 pixels
    Height : 576 pixels
    Display aspect ratio : 4:3
    Frame rate : 25.000 fps
    Standard : PAL
    Color space : YUV
    Chroma subsampling : 4:2:0
    Bit depth : 8 bits
    Scan type : Interlaced
    Scan order : Top Field First
    Compression mode : Lossy
    Bits/(Pixel*Frame) : 0.322
    Time code of first frame : 00:25:35:00
    Time code source : Group of pictures header
    Stream size : 2.24 GiB (93%)
    Audio
    ID : 189 (0xBD)-128 (0x80)
    Format : AC-3
    Format/Info : Audio Coding 3
    Mode extension : CM (complete main)
    Format settings, Endianness : Big
    Muxing mode : DVD-Video
    Duration : 1h 35mn
    Bit rate mode : Constant
    Bit rate : 192 Kbps
    Channel(s) : 2 channels
    Channel positions : Front: L R
    Sampling rate : 48.0 KHz
    Bit depth : 16 bits
    Compression mode : Lossy
    Stream size : 132 MiB (5%)

    Скриншот c названием фильма

    Скриншоты

    Скачать .torrent

    Скачать торрент-файл бесплатно и на максимальной скорости!

    Как скачивать? · Что такое торрент? · Рейтинг и ограничения

    !ВНИМАНИЕ!
    Сайт не распространяет и не хранит электронные версии произведений, а занимается лишь лишь предоставлением доступа к создаваемому пользователями каталогу ссылок на торрент-файлы, которые содержат только списки хеш-сумм, убедительная просьба с жалобами обращаться напрямую к пользователю. Файлы для обмена на трекере предоставлены пользователями сайта, и администрация не несёт ответственности за их содержание. Просьба не заливать файлы, защищенные авторскими правами, а также файлы нелегального содержания!

    [Профиль] [ЛС]
    Показать сообщения:    
    Ответить на тему

    Текущее время: Сегодня, в 00:13

    Часовой пояс: GMT + 2



    Вы не можете начинать темы
    Вы не можете отвечать на сообщения
    Вы не можете редактировать свои сообщения
    Вы не можете удалять свои сообщения
    Вы не можете голосовать в опросах
    Вы не можете прикреплять файлы к сообщениям
    Вы не можете скачивать файлы