BitTorrentTracker PerecTracker.org
BitTorrentTracker PerecTracker.org
    
Регистрация  ·  Вход
 
 · 
Забыли пароль?

  • Вердикт / The Verdict (Сидни Люмет / Sidney Lumet) [1982, США, драма, BDRip] AVO (Иванов)

    Ответить на тему
     
    Автор Сообщение

    Columb

    Создавать темы 16-Ноя-2014 11:11

           

    [Цитировать]

    Вердикт / The VerdictСтрана: США
    Жанр: драма
    Год выпуска: 1982
    Продолжительность: 02:08:58
    Перевод: Авторский (одноголосый закадровый) Михаил Иванов
    Cубтитры: нет
    Режиссер: Сидни Люмет / Sidney Lumet
    В ролях: Пол Ньюман, Шарлотта Рэмплинг, Джек Уорден, Джеймс Мейсон, Майло О’Ши, Линдси Краус, Эд Биннс, Джули Бовассо, Роксанна Харт, Джеймс Хэнди
    Описание: Когда-то Фрэнк Гэлвин был хорошим адвокатом. Но дружба с бутылкой до добра не доводит. И теперь он - консультант по юридическим вопросам в похоронной конторе.
    Бывший коллега Микки Моррисей, не забывший о способностях Фрэнка, подкидывает ему интересное дело. Это шанс попробовать снова встать на ноги и попытаться занять достойное место в жизни.
    Молодая женщина, получившая во время родов анестезию, превращается в прикованную к постели тяжелобольную. Ее родственники хотят подать в суд на респектабельную бостонскую больницу и на церковь, которой она принадлежит, чтобы получить компенсацию за причиненный физический и моральный ущерб.
    Фрэнк уверен, что сторона-ответчик виновна, но ни за что не признает медицинскую ошибку...

    Качество видео: BDRip (источник: BlueBird / BDRemux / 1080p) спасибо sociolog_melvas
    Формат видео: AVI
    Видео кодек: XviD
    Аудио кодек: AC3
    Видео: 704x384 (1.83:1), 23.976 fps, XviD build 65 ~1928 kbps avg, 0.30 bit/pixel
    Аудио: 48 kHz, AC3 Dolby Digital, 3/2 (L,C,R,l,r) + LFE ch, ~448 kbps

    MediaInfo

    Полное имя : Вердикт 1982.avi
    Формат : AVI
    Формат/Информация : Audio Video Interleave
    Профиль формата : OpenDML
    Размер файла : 2,15 Гбайт
    Продолжительность : 2 ч. 8 м.
    Общий поток : 2384 Кбит/сек
    Программа кодирования : VirtualDubMod 1.5.10.2 (build 2540/release)
    Видео
    Идентификатор : 0
    Формат : MPEG-4 Visual
    Профиль формата : Advanced Simple@L5
    Параметр BVOP формата : 1
    Параметр QPel формата : Нет
    Параметр GMC формата : Без точки перехода
    Параметр матрицы формата : Выборочная
    Идентификатор кодека : XVID
    Идентификатор кодека/Подсказка : XviD
    Продолжительность : 2 ч. 8 м.
    Битрейт : 1924 Кбит/сек
    Ширина : 704 пикселя
    Высота : 384 пикселя
    Соотношение сторон : 1,85:1
    Частота кадров : 23,976 кадра/сек
    Цветовое пространство : YUV
    Субдискретизация насыщенности : 4:2:0
    Битовая глубина : 8 бит
    Тип развёртки : Прогрессивная
    Метод сжатия : С потерями
    Бит/(Пиксели*Кадры) : 0.297
    Размер потока : 1,73 Гбайт (81%)
    Библиотека кодирования : XviD 65
    Аудио
    Идентификатор : 1
    Формат : AC-3
    Формат/Информация : Audio Coding 3
    Расширение режима : CM (complete main)
    Параметр Endianness формата : Big
    Идентификатор кодека : 2000
    Продолжительность : 2 ч. 8 м.
    Вид битрейта : Постоянный
    Битрейт : 448 Кбит/сек
    Каналы : 6 каналов
    Расположение каналов : Front: L C R, Side: L R, LFE
    Частота : 48,0 КГц
    Битовая глубина : 16 бит
    Метод сжатия : С потерями
    Размер потока : 413 Мбайт (19%)
    Выравнивание : Разделение по промежуткам
    Продолжительность промежутка : 42 мс. (1,00 видеокадр)
    Время предзагрузки промежутка : 500 мс.

    Скриншоты

    Скачать .torrent

    Скачать торрент-файл бесплатно и на максимальной скорости!

    Как скачивать? · Что такое торрент? · Рейтинг и ограничения

    !ВНИМАНИЕ!
    Сайт не распространяет и не хранит электронные версии произведений, а занимается лишь лишь предоставлением доступа к создаваемому пользователями каталогу ссылок на торрент-файлы, которые содержат только списки хеш-сумм, убедительная просьба с жалобами обращаться напрямую к пользователю. Файлы для обмена на трекере предоставлены пользователями сайта, и администрация не несёт ответственности за их содержание. Просьба не заливать файлы, защищенные авторскими правами, а также файлы нелегального содержания!

    [Профиль] [ЛС]
    Показать сообщения:    
    Ответить на тему

    Текущее время: Сегодня, в 14:41

    Часовой пояс: GMT + 2



    Вы не можете начинать темы
    Вы не можете отвечать на сообщения
    Вы не можете редактировать свои сообщения
    Вы не можете удалять свои сообщения
    Вы не можете голосовать в опросах
    Вы не можете прикреплять файлы к сообщениям
    Вы не можете скачивать файлы