Register  ·  Log in
Forgot password?

  • Нереальная любовь (Арман Геворгян.) [2014, комедия, WEB-DLRip]

    Reply to topic
    Author Message


    Post 15-Nov-2014 12:21



    Нереальная любовь-«Все так хотят!»-Жанр: комедия
    Год выпуска: 2014
    Продолжительность: 01:19:50-Режиссёр: Арман Геворгян.-В ролях: Равшана Куркова, Марина Александрова, Егор Бероев, Гоша Куценко, Егор Пазенко, Игорь Верник, Янина Студилина, Оскар Кучера, Дмитрий Ендальцев, Анна Щербинина.-Описание: Мира и Ольга когда-то учились в одном классе и спустя 10 лет случайно встречаются вновь. Светская львица решает наладить личную жизнь одноклассницы и помогает ей превратиться из наивной серой мышки в роковую красотку. Девушки в поисках единственного и неповторимого.-КиноПоиск | IMDB | Семпл-Качество видео: WEB-DLRip
    Формат видео: AVI
    Видео: 720x304 (2.37:1), 25 fps, XviD build 73 ~2151 kbps avg, 0.39 bit/pixel
    Аудио: 48 kHz, AC3 Dolby Digital, 3/2 (L,C,R,l,r) + LFE ch, ~448 kbps


    Complete name : E:\Нереальная любовь.(Logan1995).avi
    Format : AVI
    Format/Info : Audio Video Interleave
    File size : 1,46 Гбайт
    Duration : 1 ч. 19 м.
    Overall bit rate : 2609 Кбит/сек
    Writing application : VirtualDubMod | || (build 2550/release)
    Writing library : VirtualDubMod build 2550/release
    ID : 0
    Format : MPEG-4 Visual
    Format profile : Advanced Simple@L5
    Format settings, BVOP : 1
    Format settings, QPel : Нет
    Format settings, GMC : Без точки перехода
    Format settings, Matrix : Выборочная
    Codec ID : XVID
    Codec ID/Hint : XviD
    Duration : 1 ч. 19 м.
    Bit rate : 2152 Кбит/сек
    Width : 720 пикселей
    Height : 304 пикселя
    Display aspect ratio : 2,35:1
    Frame rate : 25,000 кадров/сек
    Color space : YUV
    Chroma subsampling : 4:2:0
    Bit depth : 8 бит
    Scan type : Прогрессивная
    Compression mode : С потерями
    Bits/(Pixel*Frame) : 0.393
    Stream size : 1,20 Гбайт (82%)
    Writing library : XviD 73
    ID : 1
    Format : AC-3
    Format/Info : Audio Coding 3
    Mode extension : CM (complete main)
    Format settings, Endianness : Big
    Codec ID : 2000
    Duration : 1 ч. 19 м.
    Bit rate mode : Постоянный
    Bit rate : 448 Кбит/сек
    Channel(s) : 6 каналов
    Channel positions : Front: L C R, Side: L R, LFE
    Sampling rate : 48,0 КГц
    Bit depth : 16 бит
    Compression mode : С потерями
    Stream size : 256 Мбайт (17%)
    Alignment : Разделение по промежуткам
    Interleave, duration : 40 мс. (1,00 видеокадр)
    Interleave, preload duration : 500 мс.


    Download .torrent

    Download free and at maximum speed!

    How to Download? · What is a torrent? · Ratings and Limitations

    The site does not extend and does not store electronic(digital) versions of products, and only gives access to a reference catalogue created by users on torrent-files which contain only lists of the hash-sums, the earnest entreaty, with complaints(abuse) to access directly to the user. Files for an exchange on tracker are given by users of a site, and the administration does not bear the responsibility for their maintenance. The request to not fill in the files protected by copyrights, and also files of the illegal maintenance!

    [Profile] [PM]
    Display posts from previous:    
    Reply to topic

    The time now is: Today 14:56

    All times are GMT + 3 Hours

    You cannot post new topics in this forum
    You cannot reply to topics in this forum
    You cannot edit your posts in this forum
    You cannot delete your posts in this forum
    You cannot vote in polls in this forum
    You cannot attach files in this forum
    You cannot download files in this forum