BitTorrentTracker PerecTracker.org
BitTorrentTracker PerecTracker.org
    
Регистрация  ·  Вход
 
 · 
Забыли пароль?

  • Аватар: Легенда о Корре / The Legend of Korra / Книга 3 / Серии: 1-13 (13) (Майкл Данте Димартино / Michael Dante DiMartino, Брайан Кониецко / Bryan Konietzko) [2014, Мультсериал, приключения, фэнтези, АС3] DUB

    Ответить на тему
     
    Автор Сообщение

    Columb

    Создавать темы 11-Ноя-2014 21:02

           

    [Цитировать]

    Аватар: Легенда о Корре / The Legend of Korra
    Страна: США
    Жанр: мультсериал, приключения, семейный, фэнтези
    Продолжительность: ~ 22 минуты
    Год выпуска: 2014
    Запись: Vinozavr
    Перевод: Дублированный, Никелодеон Россия
    Режиссёр:
    Michael Dante DiMartino / Майкл Данте ДиМартино
    Bryan Konietzko / Брайан Кониецко
    Описание: Мир вступает в новую эру! Гармоническое сближение вызвало сдвиг в энергетическом поле планеты, а Республиканский город спустя недели всё ещё не оправился после битвы Корры и УнаВаату. Весь город зарос и превратился в джунгли, которые новоприбывшие духи считают своим домом. Но не ждут ли наш город ещё какие-то перемены?

    Список серий

    Список серий:

    Дата премьеры сериала в Америке: 27 июня 2014
    Глава 1: Глоток свежего воздуха
    Глава 2: Возрождение нации
    Глава 3: Королева Земли
    Глава 4: В беде
    Глава 5: Клан металла

    Глава 6: Старые раны
    Глава 7: Истинный Маг Воздуха
    Глава 8: Ужас внутри
    Глава 9: Надзор (The Stakeout)
    Глава 10: Да здравствует Королева (Long Live the Queen)
    Глава 11: Ультиматум (The Ultimatum)
    Глава 12: Вступи в пустоту (Enter the Void)
    Глава 13: Яд Красного лотоса (Venom of the Red Lotus)
    MediaInfo

    Серия 1

    Audio
    ID : 1
    Format : AC-3
    Format/Info : Audio Coding 3
    Mode extension : CM (complete main)
    Format settings, Endianness : Big
    Codec ID : A_AC3
    Duration : 22mn 41s
    Bit rate mode : Constant
    Bit rate : 128 Kbps
    Channel(s) : 2 channels
    Channel positions : Front: L R
    Sampling rate : 44.1 KHz
    Bit depth : 16 bits
    Compression mode : Lossy
    Stream size : 20.8 MiB (100%)
    Default : Yes
    Forced : No

    Серия 2 и тд.

    Audio
    Format : AC-3
    Format/Info : Audio Coding 3
    Mode extension : CM (complete main)
    Format settings, Endianness : Big
    Duration : 22mn 30s
    Bit rate mode : Constant
    Bit rate : 384 Kbps
    Channel(s) : 2 channels
    Channel positions : Front: L R
    Sampling rate : 48.0 KHz
    Bit depth : 16 bits
    Compression mode : Lossy
    Stream size : 61.8 MiB (100%)

    Серии 10-13 и тд.

    Audio
    Format : AC-3
    Format/Info : Audio Coding 3
    Mode extension : CM (complete main)
    Format settings, Endianness : Big
    Duration : 22mn 40s
    Bit rate mode : Constant
    Bit rate : 192 Kbps
    Channel(s) : 2 channels
    Channel positions : Front: L R
    Sampling rate : 48.0 KHz
    Bit depth : 16 bits
    Compression mode : Lossy
    Stream size : 31.1 MiB (100%)
    Скачать .torrent

    Скачать торрент-файл бесплатно и на максимальной скорости!

    Как скачивать? · Что такое торрент? · Рейтинг и ограничения

    !ВНИМАНИЕ!
    Сайт не распространяет и не хранит электронные версии произведений, а занимается лишь лишь предоставлением доступа к создаваемому пользователями каталогу ссылок на торрент-файлы, которые содержат только списки хеш-сумм, убедительная просьба с жалобами обращаться напрямую к пользователю. Файлы для обмена на трекере предоставлены пользователями сайта, и администрация не несёт ответственности за их содержание. Просьба не заливать файлы, защищенные авторскими правами, а также файлы нелегального содержания!

    [Профиль] [ЛС]
    Показать сообщения:    
    Ответить на тему

    Текущее время: Сегодня, в 06:36

    Часовой пояс: GMT + 2



    Вы не можете начинать темы
    Вы не можете отвечать на сообщения
    Вы не можете редактировать свои сообщения
    Вы не можете удалять свои сообщения
    Вы не можете голосовать в опросах
    Вы не можете прикреплять файлы к сообщениям
    Вы не можете скачивать файлы