BitTorrentTracker PerecTracker.org
BitTorrentTracker PerecTracker.org
    
Регистрация  ·  Вход
 
 · 
Забыли пароль?

  • Захватчик / Чужак | The Intruder (Роджер Корман / Roger Corman) [1962, США, драма, DVDRip] Sub Rus + Original Eng

    Ответить на тему
     
    Автор Сообщение

    Columb

    Создавать темы 11-Ноя-2014 06:47

           

    [Цитировать]

    Захватчик/Чужак | The Intruder
    Страна: США
    Жанр: драма, полу-нуар
    Год выпуска: 1962
    Продолжительность: 01:22:59
    Перевод: Субтитры
    Cубтитры: русские
    Оригинальная аудиодорожка: английский
    Режиссер: Роджер Корман / Roger Corman
    В ролях: Уильям Шатнер , Фрэнк Максвелл, Беверли Лансфорд , Роберт Эмхардт , Лео Гордон , Чарльз Барнс , Чарльз Бомонт , Кэтрин Смит , Джордж Клэйтон Джонсон, Уильям Эф. Нолан , Фиби Роу , Бо Додд, Уолтер Курц, Осио Рич, Джинн Купер.
    Описание: В провинциальный городок одного из южных штатов приезжает улыбчивый, обаятельный молодой человек. На все расспросы отвечает, что он социальный работник. Приезд его совпал с только что принятым в штате законом, разрешающим темнокожим детям учиться вместе с белыми детьми. Так называемый закон интеграции. Для начала на занятия решено допустить только десять школьников не с белой кожей.
    Что из этого вышло, вы узнаете, посмотрев сам фильм. И какое участие во всем этом принял "социальный работник", готовый на всё, лишь бы удержать власть над массами
    .

    Доп. информация: Главного героя сыграл Уильям Шатнер - это, одна из первых его работ и лучшая роль в кино, он очень убедителен и аутентичен в образе подстрекателя и популиста. В полной мере показанна гиблость массового бунта, при минимуме изобразительных средств, скромности масштабов и общей, по нынешним временам, наивности. До сих пор, 50 с лишним лет спустя, эти темы всё ещё так актуальны. Особенно у нас!
    : 7,80
    Сэмпл:http://multi-up.com/1012324
    Качество видео: DVDRip
    Формат видео: AVI
    Видео: XviD , 512x384, 4:3, 23.976 fps, 1264 Kbps
    Аудио: MP3, 48 KHz, 2 ch, 233 Kbps
    Формат субтитров: softsub (SRT)
    Доп. информация о субтитрах: первод Jolene_ek; тайминг WARgos91

    Пример субтитров

    540
    00:38:57,764 --> 00:39:00,492
    - Привет.
    - Здравствуйте.
    541
    00:39:00,492 --> 00:39:02,244
    Сэм сказал, что я
    должен вас развлечь.
    542
    00:39:03,573 --> 00:39:06,371
    Сказал, что у него вечером дела и
    что вам может понадобиться компания.
    543
    00:39:08,214 --> 00:39:10,205
    Ну, если нет, то я могу
    вернуться к себе в номер.
    544
    00:39:11,174 --> 00:39:13,085
    Я думаю, это было бы неплохо.
    545
    00:39:13,535 --> 00:39:15,014
    Вы хотите, чтобы я ушёл?
    546
    00:39:16,016 --> 00:39:16,581
    Да.
    547
    00:39:17,336 --> 00:39:18,451
    Почему?
    548
    00:39:19,976 --> 00:39:21,534
    Видите ли, я собиралась
    лечь спать...
    549
    00:39:21,777 --> 00:39:23,733
    Разве в 10:15 время для сна?
    550
    00:39:24,097 --> 00:39:25,832
    - Пожалуйста, выйдите!
    - Ой, ну ладно.
    551
    00:39:26,938 --> 00:39:30,851
    Сэм будет очень разочарован
    вашим негостеприимством к другу.
    552
    00:39:32,899 --> 00:39:34,617
    Я не считаю вас другом,
    мистер Крамер.
    553
    00:39:34,779 --> 00:39:37,054
    Невежливо, определённо невежливо.
    554
    00:39:37,580 --> 00:39:39,049
    Всего одна чашечка кофе?
    555
    00:39:42,779 --> 00:39:43,501
    Ладно.
    556
    00:39:53,183 --> 00:39:54,536
    Почему вы это сказали?
    557
    00:39:54,850 --> 00:39:55,898
    Что сказала?
    558
    00:39:58,264 --> 00:40:00,016
    Что я не друг.
    559
    00:40:02,145 --> 00:40:06,024
    Я не знаю, видите ли, я устала,
    жарко... я ведь вам говорила.
    560
    00:40:06,626 --> 00:40:08,537
    Так себя ведёте,
    вы ведь меня не боитесь?
    561
    00:40:10,663 --> 00:40:11,325
    Нет.
    562
    00:40:12,427 --> 00:40:14,338
    Значит мне показалось.

    MediaInfo

    General
    Complete name : F:\L`a Cinema\Американское кино\Чужак\The.Intruder.SE.1962.avi
    Format : AVI
    Format/Info : Audio Video Interleave
    File size : 896 MiB
    Duration : 1h 22mn
    Overall bit rate mode : Variable
    Overall bit rate : 1 510 Kbps
    Writing application : VirtualDubMod 1.5.4.1 (build 2178/release)
    Writing library : VirtualDubMod build 2178/release
    Video
    ID : 0
    Format : MPEG-4 Visual
    Format profile : Advanced Simple@L5
    Format settings, BVOP : 1
    Format settings, QPel : No
    Format settings, GMC : No warppoints
    Format settings, Matrix : Custom
    Codec ID : XVID
    Codec ID/Hint : XviD
    Duration : 1h 22mn
    Bit rate : 1 264 Kbps
    Width : 512 pixels
    Height : 384 pixels
    Display aspect ratio : 4:3
    Frame rate : 23.976 fps
    Color space : YUV
    Chroma subsampling : 4:2:0
    Bit depth : 8 bits
    Scan type : Progressive
    Compression mode : Lossy
    Bits/(Pixel*Frame) : 0.268
    Stream size : 750 MiB (84%)
    Writing library : XviD 1.2.0.dev47 (UTC 2006-11-01)
    Audio
    ID : 1
    Format : MPEG Audio
    Format version : Version 1
    Format profile : Layer 3
    Mode : Joint stereo
    Mode extension : MS Stereo
    Codec ID : 55
    Codec ID/Hint : MP3
    Duration : 1h 22mn
    Bit rate mode : Variable
    Bit rate : 233 Kbps
    Channel(s) : 2 channels
    Sampling rate : 48.0 KHz
    Compression mode : Lossy
    Stream size : 138 MiB (15%)
    Alignment : Aligned on interleaves
    Interleave, duration : 24 ms (0.58 video frame)
    Interleave, preload duration : 79 ms
    Writing library : LAME3.97
    Encoding settings : -m j -V 4 -q 2 -lowpass 19.7 --abr
    Language : English

    Скриншот c названием фильма

    Скриншоты

    Скачать .torrent

    Скачать торрент-файл бесплатно и на максимальной скорости!

    Как скачивать? · Что такое торрент? · Рейтинг и ограничения

    !ВНИМАНИЕ!
    Сайт не распространяет и не хранит электронные версии произведений, а занимается лишь лишь предоставлением доступа к создаваемому пользователями каталогу ссылок на торрент-файлы, которые содержат только списки хеш-сумм, убедительная просьба с жалобами обращаться напрямую к пользователю. Файлы для обмена на трекере предоставлены пользователями сайта, и администрация не несёт ответственности за их содержание. Просьба не заливать файлы, защищенные авторскими правами, а также файлы нелегального содержания!

    [Профиль] [ЛС]
    Показать сообщения:    
    Ответить на тему

    Текущее время: Сегодня, в 06:57

    Часовой пояс: GMT + 2



    Вы не можете начинать темы
    Вы не можете отвечать на сообщения
    Вы не можете редактировать свои сообщения
    Вы не можете удалять свои сообщения
    Вы не можете голосовать в опросах
    Вы не можете прикреплять файлы к сообщениям
    Вы не можете скачивать файлы