BitTorrentTracker PerecTracker.org
BitTorrentTracker PerecTracker.org
    
Регистрация  ·  Вход
 
 · 
Забыли пароль?

  • СЕКС СЕГОДНЯ / SEX NOW (Крис Мокарбель / Chris Moukarbel) [2014, Документалистика, HDTV 1080i]

    Ответить на тему
     
    Автор Сообщение

    Columb

    Создавать темы 09-Ноя-2014 08:45

           

    [Цитировать]

    СЕКС СЕГОДНЯ / SEX NOW
    Возрастные ограничения 18+
    Год выпуска: 2014
    Страна: США
    Студия: HBO Films
    Жанр: Документалистика
    Продолжительность: 00:26:00
    Перевод: Профессиональный (многоголосый закадровый)
    Русские субтитры: есть
    Режиссер: Крис Мокарбель / Chris Moukarbel
    Описание: Документальный фильм НВО о сексе в мире современных технологий. Сколько стоят запрещенные удовольствия в интернете? И как заработать неплохие деньги на чужих желаниях?
    Сэмпл: http://multi-up.com/1011839
    Тип релиза: HDTV 1080i
    Контейнер: TS
    Видео: AVC, 1920х1080, 16:9, 6681 Кбит/сек, 25 fps
    Аудио: (русский) MPEG Audio, 192 Кбит/сек, 48 КГц, 2 канала
    Аудио 2: (английский) MPEG Audio, 192 Кбит/сек, 48 КГц, 2 канала
    Формат субтитров: Teletext Sub page 888

    MediaInfo

    ОбщееИдентификатор : 16 (0x10)Полное имя : SexNow_HD.tsФормат : MPEG-TSРазмер файла : 1,44 ГбайтПродолжительность : 26 м.Режим общего битрейта : ПеременныйОбщий поток : 7844 Кбит/сек
    ВидеоИдентификатор : 1812 (0x714)Идентификатор меню : 812 (0x32C)Формат : AVCФормат/Информация : Advanced Video CodecПрофиль формата : High@L4.0Параметр CABAC формата : ДаПараметр ReFrames формата : 4 кадраИдентификатор кодека : 27Продолжительность : 26 м.Битрейт : 6681 Кбит/секШирина : 1920 пикселейВысота : 1080 пикселейСоотношение сторон : 16:9Частота кадров : 25,000 кадров/секСтандарт вещания : PALЦветовое пространство : YUVСубдискретизация насыщенности : 4:2:0Битовая глубина : 8 битТип развёртки : MBAFFБит/(Пиксели*Кадры) : 0.129Размер потока : 1,22 Гбайт (85%)Основные цвета : BT.709Характеристики трансфера : BT.709Коэффициенты матрицы : BT.709
    Аудио #1Идентификатор : 2812 (0xAFC)Идентификатор меню : 812 (0x32C)Формат : MPEG AudioВерсия формата : Version 1Профиль формата : Layer 2Режим : Joint stereoРасширение режима : Intensity Stereo + MS StereoИдентификатор кодека : 4Продолжительность : 26 м.Вид битрейта : ПостоянныйБитрейт : 192 Кбит/секКаналы : 2 каналаЧастота : 48,0 КГцМетод сжатия : С потерямиЗадержка видео : 145 мс.Размер потока : 36,0 Мбайт (2%)Язык : stdЯзык, дополнительно : Clean effects
    Аудио #2Идентификатор : 3812 (0xEE4)Идентификатор меню : 812 (0x32C)Формат : MPEG AudioВерсия формата : Version 1Профиль формата : Layer 2Режим : Joint stereoРасширение режима : Intensity Stereo + MS StereoИдентификатор кодека : 4Продолжительность : 26 м.Вид битрейта : ПостоянныйБитрейт : 192 Кбит/секКаналы : 2 каналаЧастота : 48,0 КГцМетод сжатия : С потерямиЗадержка видео : 145 мс.Размер потока : 36,0 Мбайт (2%)Язык : EnglishЯзык, дополнительно : Clean effects
    ТекстИдентификатор : 63 (0x3F)-100Идентификатор меню : 812 (0x32C)Формат : Teletext
    МенюИдентификатор : 812 (0x32C)Идентификатор меню : 812 (0x32C)Продолжительность : 26 м.Список : 1812 (0x714) (AVC) / 2812 (0xAFC) (MPEG Audio, std) / 3812 (0xEE4) (MPEG Audio, English) / 4812 (0x12CC) (AC-3, std) / 63 (0x3F) ()Язык : / std / English / std

    Скриншоты

    Скачать .torrent

    Скачать торрент-файл бесплатно и на максимальной скорости!

    Как скачивать? · Что такое торрент? · Рейтинг и ограничения

    !ВНИМАНИЕ!
    Сайт не распространяет и не хранит электронные версии произведений, а занимается лишь лишь предоставлением доступа к создаваемому пользователями каталогу ссылок на торрент-файлы, которые содержат только списки хеш-сумм, убедительная просьба с жалобами обращаться напрямую к пользователю. Файлы для обмена на трекере предоставлены пользователями сайта, и администрация не несёт ответственности за их содержание. Просьба не заливать файлы, защищенные авторскими правами, а также файлы нелегального содержания!

    [Профиль] [ЛС]
    Показать сообщения:    
    Ответить на тему

    Текущее время: Сегодня, в 08:03

    Часовой пояс: GMT + 2



    Вы не можете начинать темы
    Вы не можете отвечать на сообщения
    Вы не можете редактировать свои сообщения
    Вы не можете удалять свои сообщения
    Вы не можете голосовать в опросах
    Вы не можете прикреплять файлы к сообщениям
    Вы не можете скачивать файлы